Брати по крові / Blutsbrüder (1975) Remux 1080i Ukr/Ger | Sub Eng

Нові коментарі

Нова тема   Відповісти
Автор Повідомлення
kryk-v.ya. 
VIP


З нами з: 14.02.14
Востаннє: 13.12.18
Повідомлень: 727

2018-10-08 17:50  
Брати по крові / Blutsbrüder (1975) Remux 1080i Ukr/Ger | Sub Eng

Брати по крові / Blutsbrüder (1975) Remux 1080i Ukr/Ger | Sub Eng


Жанр: вестерн, драма
Країна: НДР



Кінокомпанія: Deutsche Film (DEFA)
Режисер: Вернер В. Волрот
Актори: Ґойко Мітіч, Дін Рід, Ґізелла Фройденберґ та інші

Сюжет:
Американські війська зігнали плем'я шайєннів з родючих земель Колорадо. Згодом в штаті Монтана були знайдені поклади золота. Натовпи авантюристів та золотошукачів кинулись туди через землі шайєннів. Серед них і дезертир Гармоніка. Рятуючи життя індіанки, він потрапляє в полон до індіанців.


Тривалість: 01:35:34
Якість: Remux 1080i
Відео:
кодек:
розмір кадру: 1920 х 1080
бітрейт: 30.0 Mб/с

Аудіо # 1:
мова: українська
переклад: двоголосий закадровий
кодек: 2.0
бітрейт: 192 кб/с

Аудіо # 2:
мова: німецька
переклад: оригінал
кодек: 2.0
бітрейт: 384 кб/с

Субтитри:
мова: англійська
тип: пререндерні
формат: *.pgs
Info
General
Unique ID : 161989209071395862583629628268133374528 (0x79DDFCA1AA61B26B867FD574C51E5A40)
Complete name : E:\Blutsbrüder (1975) Remux 1080i.
Format :
Format version : Version 4 / Version 2
File size : 20.4 GiB
Duration : 1 h 35 min
Overall bit rate mode : Variable
Overall bit rate : 30.6 Mb/s
Encoded date : UTC 2018-10-08 14:49:11
Writing application : v25.0.0 ('Prog Noir') 64-bit
Writing library : libebml v1.3.6 + v1.4.9
Attachments : 0014.jpg

Video
ID : 1
Format : AVC
Format/Info : Advanced Video Codec
Format profile : [email protected]
Format settings : CABAC / 3 Ref Frames
Format settings, CABAC : Yes
Format settings, ReFrames : 3 frames
Codec ID : V_MPEG4/ISO/AVC
Duration : 1 h 35 min
Bit rate mode : Variable
Bit rate : 30.0 Mb/s
Maximum bit rate : 35.0 Mb/s
Width : 1 920 pixels
Height : 1 080 pixels
Display aspect ratio : 16:9
Frame rate mode : Constant
Frame rate : 25.000 FPS
Standard : NTSC
Color space : YUV
Chroma subsampling : 4:2:0
Bit depth : 8 bits
Scan type : MBAFF
Bits/(Pixel*Frame) : 0.579
Stream size : 20.0 GiB (98%)
Default : Yes
Forced : No
Color range : Limited
Color primaries : BT.709
Transfer characteristics : BT.709
Matrix coefficients : BT.709

Audio #1
ID : 2
Format : AC-3
Format/Info : Audio Coding 3
Commercial name : Dolby Digital
Codec ID : A_AC3
Duration : 1 h 35 min
Bit rate mode : Constant
Bit rate : 192 kb/s
Channel(s) : 2 channels
Channel layout : L R
Sampling rate : 48.0 kHz
Frame rate : 31.250 FPS (1536 SPF)
Bit depth : 16 bits
Compression mode : Lossy
Stream size : 131 MiB (1%)
Title : DVO-(Ентер-фільм)
Language : Ukrainian
Service kind : Complete Main
Default : Yes
Forced : No

Audio #2
ID : 3
Format : AC-3
Format/Info : Audio Coding 3
Commercial name : Dolby Digital
Codec ID : A_AC3
Duration : 1 h 35 min
Bit rate mode : Constant
Bit rate : 384 kb/s
Channel(s) : 2 channels
Channel layout : L R
Sampling rate : 48.0 kHz
Frame rate : 31.250 FPS (1536 SPF)
Bit depth : 16 bits
Compression mode : Lossy
Stream size : 262 MiB (1%)
Title : Оригінал
Language : German
Service kind : Complete Main
Default : No
Forced : No

Text
ID : 4
Format : PGS
Muxing mode : zlib
Codec ID : S_HDMV/PGS
Codec ID/Info : Picture based subtitle format used on BDs/HD-DVDs
Duration : 1 h 35 min
Bit rate : 19.5 kb/s
Count of elements : 1354
Stream size : 13.3 MiB (0%)
Language : English
Default : Yes
Forced : No
Скріншоти





Джерело: &
Особиста оцінка: 10 - без зайвих вагань рекомендую всім!

Велика подяка пану krigg070 за роботу над звуковою доріжкою.


Золотий реліз (завантажене не впливає на рейтинг)
 Трекер:    Зареєстрований   

Завантажити / скачати фільм українською



відео для новачків



 Зареєстрований:   2018-10-08 17:50
 Розмір:   20.42 GB 
 Оцінка фільму:   10/10 (Голосів: 6)
   
Інші релізи
   Брати по крові / Blutsbrüder (1975) krigg070  2 / 0   1.4 GB   2017-10-31 23:37 
Ваш часовий пояс: GMT + 2 Години

Нова тема   Відповісти