27 весіль / 27 Dresses (2008) 1080p 2xUkr/Eng | Sub Eng

Нові коментарі

Нова тема   Відповісти
Автор Повідомлення
staf777 
Попереджень: 1
Попереджень: 1 


З нами з: 16.11.16
Востаннє: 16.10.18
Повідомлень: 1632

2018-10-07 20:49  
27 весіль / 27 Dresses (2008) 1080p 2xUkr/Eng | Sub Eng

27 весіль / 27 Dresses (2008) 1080p 2xUkr/Eng | Sub Eng


Жанр: мелодрама, комедія
Країна: США



Кінокомпанія: 20th Century Fox, Spyglass Entertainment
Режисер: Енн Флетчер
Актори: Кетрін Хейгл, Джеймс Марсден, Едвард Бернс, Малін Акерман, Джуді Грір, Браян Кервін

Сюжет:
Побувавши, як подружка нареченої на 27 весіллях, головна героїня раптом розуміє, що пора б зупинитися і задуматися вже і про власне заміжжя, але на останок відгуляти весілля своєї сестри. Проте, з'ясовується, що та зібралася заміж за людину, на яку "професійна подружка" якраз тільки встигла покласти око. Назріває конфлікт...


Тривалість: 01:50:48
Якість: 1080p
Відео:
кодек:
розмір кадру: 1920x800
бітрейт: 8357 кб/с

Аудіо # 1:
мова: українська
переклад: професійний дубльований
кодек: 5.1
бітрейт: 384 кб/с

Аудіо # 2:
мова: українська
переклад: багатоголосий закадровий
кодек: 2.0
бітрейт: 192 кб/с

Аудіо # 3:
мова: англійська
переклад: оригінал
кодек: 5.1
бітрейт: 640 кб/с

Джерело озвучення:
+

Субтитри:
мова: англійська
тип: програмні (м'які)
формат: *.srt
Скріншоти





MI
General
Unique ID : 126353063450120155621170912201538043871 (0x5F0EB7002BDDF6730BA5761BC4E87FDF)
Complete name : N:\27 Dresses (2008) (1080p) [2xUKR_ENG] [Hurtom].
Format :
Format version : Version 4 / Version 2
File size : 7.41 GiB
Duration : 1 h 50 min
Overall bit rate : 9 573 kb/s
Movie name : 27 Dresses (2008) (1080p) [2xUKR_ENG] [Hurtom]
Encoded date : UTC 2018-10-08 16:27:01
Writing application : v24.0.0 ('Beyond The Pale') 64-bit
Writing library : libebml v1.3.6 + v1.4.9
Cover : Yes
Attachments : cover.jpg

Video
ID : 1
Format : AVC
Format/Info : Advanced Video Codec
Format profile : [email protected]
Format settings : CABAC / 5 Ref Frames
Format settings, CABAC : Yes
Format settings, ReFrames : 5 frames
Codec ID : V_MPEG4/ISO/AVC
Duration : 1 h 50 min
Bit rate : 8 357 kb/s
Width : 1 920 pixels
Height : 800 pixels
Display aspect ratio : 2.40:1
Frame rate mode : Constant
Frame rate : 23.976 (24000/1001) FPS
Color space : YUV
Chroma subsampling : 4:2:0
Bit depth : 8 bits
Scan type : Progressive
Bits/(Pixel*Frame) : 0.227
Stream size : 6.47 GiB (87%)
Writing library : core 135 r2345 f0c1c53
Encoding settings : cabac=1 / ref=5 / deblock=1:-3:-3 / analyse=0x3:0x133 / me=umh / subme=11 / psy=1 / psy_rd=1.00:0.00 / mixed_ref=1 / me_range=32 / chroma_me=1 / trellis=2 / 8x8dct=1 / cqm=0 / deadzone=21,11 / fast_pskip=0 / chroma_qp_offset=-2 / threads=12 / lookahead_threads=1 / sliced_threads=0 / nr=0 / decimate=0 / interlaced=0 / bluray_compat=0 / constrained_intra=0 / bframes=6 / b_pyramid=2 / b_adapt=2 / b_bias=0 / direct=3 / weightb=1 / open_gop=0 / weightp=2 / keyint=240 / keyint_min=23 / scenecut=40 / intra_refresh=0 / rc=2pass / mbtree=0 / bitrate=8357 / ratetol=1.0 / qcomp=0.60 / qpmin=0 / qpmax=69 / qpstep=4 / cplxblur=20.0 / qblur=0.5 / ip_ratio=1.40 / pb_ratio=1.30 / aq=1:0.70
Language : English
Default : Yes
Forced : No

Audio #1
ID : 2
Format : AC-3
Format/Info : Audio Coding 3
Codec ID : A_AC3
Duration : 1 h 50 min
Bit rate mode : Constant
Bit rate : 384 kb/s
Channel(s) : 6 channels
Channel positions : Front: L C R, Side: L R, LFE
Sampling rate : 48.0 kHz
Frame rate : 31.250 FPS (1536 SPF)
Bit depth : 16 bits
Compression mode : Lossy
Stream size : 304 MiB (4%)
Title : [UA-DUB]
Language : Ukrainian
Service kind : Complete Main
Default : Yes
Forced : Yes

Audio #2
ID : 3
Format : AC-3
Format/Info : Audio Coding 3
Codec ID : A_AC3
Duration : 1 h 50 min
Bit rate mode : Constant
Bit rate : 192 kb/s
Channel(s) : 2 channels
Channel positions : Front: L R
Sampling rate : 48.0 kHz
Frame rate : 31.250 FPS (1536 SPF)
Bit depth : 16 bits
Compression mode : Lossy
Stream size : 152 MiB (2%)
Title : [UA-MVO]
Language : Ukrainian
Service kind : Complete Main
Default : No
Forced : No

Audio #3
ID : 4
Format : AC-3
Format/Info : Audio Coding 3
Codec ID : A_AC3
Duration : 1 h 50 min
Bit rate mode : Constant
Bit rate : 640 kb/s
Channel(s) : 6 channels
Channel positions : Front: L C R, Side: L R, LFE
Sampling rate : 48.0 kHz
Frame rate : 31.250 FPS (1536 SPF)
Bit depth : 16 bits
Compression mode : Lossy
Stream size : 507 MiB (7%)
Title : Eng
Language : English
Service kind : Complete Main
Default : No
Forced : No

Text
ID : 5
Format : UTF-8
Codec ID : S_TEXT/UTF8
Codec ID/Info : UTF-8 Plain Text
Duration : 1 h 42 min
Bit rate : 75 b/s
Count of elements : 1292
Stream size : 56.7 KiB (0%)
Title : Eng
Language : English
Default : No
Forced : No

Menu
00:00:00.000 : :Chapter 01
00:03:02.599 : :Chapter 02
00:08:26.797 : :Chapter 03
00:12:41.218 : :Chapter 04
00:16:14.890 : :Chapter 05
00:19:16.780 : :Chapter 06
00:27:26.770 : :Chapter 07
00:30:40.213 : :Chapter 08
00:33:34.595 : :Chapter 09
00:39:26.280 : :Chapter 10
00:42:50.317 : :Chapter 11
00:44:14.568 : :Chapter 12
00:47:51.994 : :Chapter 13
00:50:13.260 : :Chapter 14
00:57:00.208 : :Chapter 15
01:00:05.310 : :Chapter 16
01:05:31.010 : :Chapter 17
01:10:56.710 : :Chapter 18
01:16:12.234 : :Chapter 19
01:18:58.817 : :Chapter 20
01:25:19.739 : :Chapter 21
01:28:43.401 : :Chapter 22
01:32:44.392 : :Chapter 23
01:39:53.946 : :Chapter 24
За першу доріжку дякую пану BASTERD-94
За запис з ТЕТ дякую пану xSlim та пану Arsenfpu за синхронізацію доріжки
Джерело: &
Особиста оцінка: 8 - мені сподобалося
27 весіль / 27 Dresses (2008) 1080p 2xUkr/Eng | Sub Eng

27 весіль / 27 Dresses (2008) 1080p 2xUkr/Eng | Sub Eng


 Трекер:    Зареєстрований   

Завантажити / скачати фільм українською



відео для новачків



 Зареєстрований:   2018-10-08 19:57
 Розмір:   7.41 GB 
 Оцінка фільму:   5.5/10 (Голосів: 2)
   
Інші релізи
   27 весіль / 27 Dresses (2008) AVC 2xUkr/Eng | Sub Eng staf777  9 / 0   2.44 GB   2018-10-07 20:44 
   27 весіль / 27 Dresses (2008) 2xUkr/Eng Arsenfpu  6 / 0   2.19 GB   2016-11-19 20:46 
   27 весіль / 27 Dresses (2008) 720p Ukr/Eng | Sub Eng Mr Yuran  0 / 0   3.52 GB   2013-10-30 22:59 
   27 весіль / 27 Dresses (2008) Ukr/Eng BASTERD-94  3 / 0   2.18 GB   2012-08-15 12:01 
bot 
робот


З нами з: 30.09.07
Востаннє: 26.05.05
Повідомлень: 19956

2018-10-08 19:56  
Тему перенесено з Анонси релізів до форуму Фільми в HD


staf777

Ваш часовий пояс: GMT + 2 Години

Нова тема   Відповісти