Чингачгук - Великий Змій / Chingachgook, die große Schlange (1967) Remux 1080i Ukr/Ger | Sub Eng

Нові коментарі

Нова тема   Відповісти
Автор Повідомлення
kryk-v.ya. 
VIP


З нами з: 14.02.14
Востаннє: 13.12.18
Повідомлень: 727

2018-10-07 11:27  
Чингачгук - Великий Змій / Chingachgook, die große Schlange (1967) Remux 1080i Ukr/Ger | Sub Eng

Чингачгук - Великий Змій / Chingachgook, die große Schlange (1967) Remux 1080i Ukr/Ger | Sub Eng


Жанр: вестерн
Країна: НДР



Кінокомпанія: Deutsche Film (DEFA)
Режисер: Ріхард Ґрошопп
Актори: Ґойко Мітіч, Рольф Ремер, Гельмут Шрайбер та інші

Сюжет:
1740. Англійські війська намагаються відбити у французів їх північноамериканські колонії і втягують в цю війну індіанців. У руки гуронів, яких французи нацькували на делаварів, потрапляє Ватава, донька вождя, обіцяна Чингачгуку. Він збирається звільнити її за допомогою свого друга Звіробоя.


Тривалість: 01:27:28
Якість: Remux 1080i
Відео:
кодек:
розмір кадру: 1920 х 1080
бітрейт: 29.7 Mб/с

Аудіо # 1:
мова: українська
переклад: двоголосий закадровий
кодек: 2.0
бітрейт: 192 кб/с

Аудіо # 2:
мова: німецька
переклад: оригінал
кодек: 2.0
бітрейт: 640 кб/с

Субтитри:
мова: англійська
тип: пререндерні
формат: *.pgs
Info
General
Unique ID : 282061877801472152300616845647886725021 (0xD4332444034EF950F242CB0F93B8AF9D)
Complete name : E:\Chingachgook (1967) Remux 1080i.
Format :
Format version : Version 4 / Version 2
File size : 18.7 GiB
Duration : 1 h 27 min
Overall bit rate mode : Variable
Overall bit rate : 30.6 Mb/s
Encoded date : UTC 2018-10-06 22:09:18
Writing application : v25.0.0 ('Prog Noir') 64-bit
Writing library : libebml v1.3.6 + v1.4.9
Attachments : 0012.jpg

Video
ID : 1
Format : AVC
Format/Info : Advanced Video Codec
Format profile : [email protected]
Format settings : CABAC / 3 Ref Frames
Format settings, CABAC : Yes
Format settings, ReFrames : 3 frames
Codec ID : V_MPEG4/ISO/AVC
Duration : 1 h 27 min
Bit rate mode : Variable
Bit rate : 29.7 Mb/s
Maximum bit rate : 35.0 Mb/s
Width : 1 920 pixels
Height : 1 080 pixels
Display aspect ratio : 16:9
Frame rate mode : Constant
Frame rate : 25.000 FPS
Standard : NTSC
Color space : YUV
Chroma subsampling : 4:2:0
Bit depth : 8 bits
Scan type : MBAFF
Bits/(Pixel*Frame) : 0.574
Stream size : 18.2 GiB (97%)
Default : Yes
Forced : No
Color range : Limited
Color primaries : BT.709
Transfer characteristics : BT.709
Matrix coefficients : BT.709

Audio #1
ID : 2
Format : AC-3
Format/Info : Audio Coding 3
Commercial name : Dolby Digital
Codec ID : A_AC3
Duration : 1 h 27 min
Bit rate mode : Constant
Bit rate : 192 kb/s
Channel(s) : 2 channels
Channel layout : L R
Sampling rate : 48.0 kHz
Frame rate : 31.250 FPS (1536 SPF)
Bit depth : 16 bits
Compression mode : Lossy
Stream size : 120 MiB (1%)
Title : DVO-(Ентер-фільм)
Language : Ukrainian
Service kind : Complete Main
Default : Yes
Forced : No

Audio #2
ID : 3
Format : AC-3
Format/Info : Audio Coding 3
Commercial name : Dolby Digital
Codec ID : A_AC3
Duration : 1 h 27 min
Bit rate mode : Constant
Bit rate : 640 kb/s
Channel(s) : 2 channels
Channel layout : L R
Sampling rate : 48.0 kHz
Frame rate : 31.250 FPS (1536 SPF)
Bit depth : 16 bits
Compression mode : Lossy
Delay relative to video : 27 ms
Stream size : 400 MiB (2%)
Title : Оригінал
Language : German
Service kind : Complete Main
Default : No
Forced : No

Text
ID : 4
Format : PGS
Muxing mode : zlib
Codec ID : S_HDMV/PGS
Codec ID/Info : Picture based subtitle format used on BDs/HD-DVDs
Duration : 1 h 27 min
Bit rate : 17.7 kb/s
Count of elements : 1080
Stream size : 11.0 MiB (0%)
Language : English
Default : Yes
Forced : No
Скріншоти





Джерело: &
Особиста оцінка: 8 - мені сподобалося

Велика подяка пану krigg070 за роботу над звуковою доріжкою.


Золотий реліз (завантажене не впливає на рейтинг)
 Трекер:    Зареєстрований   

Завантажити / скачати фільм українською



відео для новачків



 Зареєстрований:   2018-10-07 11:27
 Розмір:   18.69 GB 
 Оцінка фільму:   9.7/10 (Голосів: 6)
   
Інші релізи
staf777 
Попереджень: 1
Попереджень: 1 


З нами з: 16.11.16
Востаннє: 13.12.18
Повідомлень: 1909

2018-10-07 18:21  
О ностальгія - моя перша книжка яку я прочитав в дитинстві - дякую
kryk-v.ya. 
VIP


З нами з: 14.02.14
Востаннє: 13.12.18
Повідомлень: 727

2018-10-07 19:31  
staf777
будь-ласка.

Ваш часовий пояс: GMT + 2 Години

Нова тема   Відповісти