Податок на кохання / Taxing Love / Podatek od miłości (2018) 720p Pol | Sub Ukr/Eng

Нові коментарі

Нова тема   Відповісти
Автор Повідомлення
ivan vyrvyvuho 
VIP


З нами з: 19.08.12
Востаннє: 17.07.19
Повідомлень: 1063

2018-10-07 11:08  
Податок на кохання / Taxing Love / Podatek od miłości (2018) 720p Pol | Sub Ukr/Eng

Податок на кохання / Taxing Love / Podatek od miłości (2018) 720p Pol | Sub Ukr/Eng


Жанр: комедія, романтичний
Країна: Польща



Кінокомпанія: TVN, Polski Instytut Sztuki Filmowej
Режисер: Бартоломей Іґнацюк / Bartłomiej Ignaciuk
Актори: Александра Доманська / Aleksandra Domańska, Ґжеґож Даменцький / Grzegorz Damięcki, Рома Ґонсьоровська / Roma Gąsiorowska, Міхал Чернецький / Michał Czernecki, Анна Смоловік / Anna Smołowik, Томаш Влосок / Tomasz Włosok, Єва Ґаврилюк / Ewa Gawryluk, Збіґнєв Замаховський / Zbigniew Zamachowski, Маґдалена Поплавська / Magdalena Popławska та інші.

Сюжет:
Клара – енергійна молода жінка, в якої дуже насичений ритм життя. Вона ходить на бокс, дбає про фігуру і намагається активно проводити час. На відміну від Клари, її безробітний хлопець Артур любить легкий стиль життя – він типовий трутень. Він не хоче відмовитися від свободи, тому ніяк не може відважитися прийняти запропоновану батьком вигідну посаду в одній з варшавських корпорацій. Клара працює податковим інспектором. Її із подругою Аґнєшкою бояться всі столичні крутії, що уникають сплати податків. Так виглядає, що одним із них є Мар'ян. Коли його викликають до інспекторок, він не може пояснити причин податкової заборгованості. Мар'ян радиться зі знайомими юристами, а ті не мають сумнівів. Якщо він нічого не придумає, то буде змушений заплатити півмільйона несплачених податків. Один з юристів підказує Мар'яну ризиковане рішення. Коли його доля вже ніби вирішена, зненацька і всупереч здоровому глузду Клара і Мар'ян закохуються. Це спричиняє ряд комічних подій, які міняють життя героїв. Він заради вирішення справи може стати альфонсом. Вона може потрапити до в'язниці. Чи так станеться?
Романтична комедія про кохання, яке можна зустріти усюди, навіть… в податковій службі. (Опис узято із сайту Кінопалацу)


Тривалість: 01:40:31
Якість:
Відео:
кодек:
розмір кадру: 1280 х 480
бітрейт: 4888 кб/с

Аудіо:
мова: польська
переклад: оригінал
кодек: 5.1
бітрейт: 640 кб/с

Субтитри # 1:
мова: українська
тип: програмні (м'які)
формат: *.srt
переклад: з польської ivan vyrvyvuho

Субтитри # 2:
мова: англійська
тип: програмні (м'які)
формат: *.srt
Info
General
Unique ID : 234265402122312029060924526384527989153 (0xB03DE012E1FB69E7B9A32FD3EAD459A1)
Complete name : D:\тор\Podatek od milosci (2018) [Pol,Sub Ukr,Eng] 720p.
Format :
Format version : Version 2
File size : 3.88 GiB
Duration : 1 h 40 min
Overall bit rate : 5 527 kb/s
Encoded date : UTC 2018-10-07 07:17:20
Writing application : v5.6.0 ('Kenya Kane') built on May 27 2012 16:44:04
Writing library : libebml v1.2.3 + v1.3.0
Encoding Gui : Hybrid 2015.05.10.1

Video
ID : 1
Format : AVC
Format/Info : Advanced Video Codec
Format profile : [email protected]
Format settings, CABAC : Yes
Format settings, ReFrames : 5 frames
Codec ID : V_MPEG4/ISO/AVC
Duration : 1 h 40 min
Bit rate : 4 888 kb/s
Width : 1 280 pixels
Height : 480 pixels
Display aspect ratio : 2.667
Frame rate mode : Constant
Frame rate : 24.000 FPS
Color space : YUV
Chroma subsampling : 4:2:0
Bit depth : 8 bits
Scan type : Progressive
Bits/(Pixel*Frame) : 0.331
Stream size : 3.35 GiB (86%)
Writing library : core 146 r2538 121396c
Encoding settings : cabac=1 / ref=5 / deblock=1:0:0 / analyse=0x3:0x113 / me=umh / subme=8 / psy=1 / psy_rd=1.00:0.00 / mixed_ref=1 / me_range=16 / chroma_me=1 / trellis=1 / 8x8dct=1 / cqm=0 / deadzone=21,11 / fast_pskip=1 / chroma_qp_offset=-2 / threads=18 / lookahead_threads=3 / sliced_threads=0 / nr=0 / decimate=1 / interlaced=0 / bluray_compat=0 / constrained_intra=0 / bframes=3 / b_pyramid=2 / b_adapt=2 / b_bias=0 / direct=3 / weightb=1 / open_gop=0 / weightp=2 / keyint=250 / keyint_min=24 / scenecut=40 / intra_refresh=0 / rc_lookahead=50 / rc=2pass / mbtree=1 / bitrate=4888 / ratetol=1.0 / qcomp=0.60 / qpmin=0 / qpmax=69 / qpstep=4 / cplxblur=20.0 / qblur=0.5 / vbv_maxrate=62500 / vbv_bufsize=78125 / nal_hrd=none / filler=0 / ip_ratio=1.40 / aq=1:1.00
Default : Yes
Forced : Yes
Color range : Limited
Matrix coefficients : BT.709

Audio
ID : 2
Format : AC-3
Format/Info : Audio Coding 3
Mode extension : CM (complete main)
Format settings, Endianness : Big
Codec ID : A_AC3
Duration : 1 h 40 min
Bit rate mode : Constant
Bit rate : 640 kb/s
Channel(s) : 6 channels
Channel positions : Front: L C R, Side: L R, LFE
Sampling rate : 48.0 kHz
Frame rate : 31.250 FPS (1536 spf)
Bit depth : 16 bits
Compression mode : Lossy
Stream size : 460 MiB (12%)
Default : No
Forced : No

Text #1
ID : 3
Format : UTF-8
Codec ID : S_TEXT/UTF8
Codec ID/Info : UTF-8 Plain Text
Default : Yes
Forced : No

Text #2
ID : 4
Format : UTF-8
Codec ID : S_TEXT/UTF8
Codec ID/Info : UTF-8 Plain Text
Default : No
Forced : No
Скріншоти







Джерело:
Особиста оцінка: 7 - моїй подрузі сподобалося


Золотий реліз (завантажене не впливає на рейтинг)
 Трекер:    Зареєстрований   

Завантажити / скачати фільм українською



відео для новачків



 Зареєстрований:   2018-10-07 11:08
 Розмір:   3.88 GB 
 Оцінка фільму:   8.7/10 (Голосів: 15)
   
Phantom 
Відео Гуртом - підтримка та поширення
Відео Гуртом - підтримка та поширення


З нами з: 29.01.08
Востаннє: 18.07.19
Повідомлень: 424

2018-10-07 18:06  
Ви б хоча б опис перечитували. Бо це страх.
szo4 
Новенький


З нами з: 13.12.07
Востаннє: 21.04.19
Повідомлень: 10

2018-10-16 20:50  
Щиро дякую за переклад. Комедія цікава.
zhman 
Поважний учасник


З нами з: 21.12.14
Востаннє: 05.07.19
Повідомлень: 220

2018-12-18 11:34  
цікавий, місцями достатньо смішний фільмець!
Barilo 
Частий відвідувач


З нами з: 22.05.11
Востаннє: 17.07.19
Повідомлень: 45

2018-12-22 20:21  
Дуже дивний опис. І не зрозуміло як там Артур. Так трутнем весь фільм і прожив, не беручі участі в комічних подіях чи може теж стрибнув у гречку
Ваш часовий пояс: GMT + 2 Години

Нова тема   Відповісти