Мій пацан [Театральна версія] / That's My Boy [Theatrical Cut] (2012) 1080p Ukr/Eng | Sub Eng

Нові коментарі

Нова тема   Відповісти
Автор Повідомлення
staf777 
Попереджень: 1
Попереджень: 1 


З нами з: 16.11.16
Востаннє: 19.10.18
Повідомлень: 1637

2018-10-07 09:13  
Мій пацан [Театральна версія] / That's My Boy [Theatrical Cut] (2012) 1080p Ukr/Eng | Sub Eng

Мій пацан [Театральна версія] / That's My Boy [Theatrical Cut] (2012) 1080p Ukr/Eng | Sub Eng


Жанр: комедія
Країна: США



Кінокомпанія: Columbia Pictures, Happy Madison Productions
Режисер: Шон Андерс
Актори: Адам Сендлер, Енді Самберґ, Лейтон Містер, Ванілла Айс, Джеймс Каан, Міло Вентіміґлія, Блейк Кларк та інші.

Сюжет:
Переспавши із «дуже поганою вчителькою» прямо в школі, тінейджер стає батьком «по зальоту», а його зріла пасія потрапляє до в'язниці за розбещення малолітнього. Тепер юний тато-одинак ​​змушений піклуватися про сина до його повноліття, а потім благополучно зникає в невідомому напрямку. І ось, через багато років, опинившись на мілині, ексцентричний татко немов ураган вривається в життя сина напередодні його весілля і своїми божевільними витівками перевертає все догори дном.


Тривалість: 01:54:28
Якість: 1080p [Theatrical Cut]
Відео:
кодек:
розмір кадру: 1920x800
бітрейт: 11.0 Mб/с

Аудіо # 1:
мова: українська
переклад: професійний дубльований
кодек: 5.1
бітрейт: 448 кб/с

Аудіо # 2:
мова: англійська
переклад: оригінал
кодек: 5.1
бітрейт: 1509 кб/с

Джерело озвучення:


Субтитри:[Forced-UA][Full-ENG]
мова: українська англійська
тип: програмні (м'які)
формат: *.srt
Info
General
Unique ID : 333017730199400130253121290359747340876 (0xFA88E1C1988EB3EA9F04FB106A7F6A4C)
Complete name : N:\Фільми HD\That's My Boy (2012) 1080p [UKR_ENG] [Hurtom].
Format :
Format version : Version 4 / Version 2
File size : 10.4 GiB
Duration : 1 h 54 min
Overall bit rate : 13.0 Mb/s
Movie name : That's My Boy (2012) 1080p [UKR_ENG] [Hurtom]
Encoded date : UTC 2018-10-07 05:18:43
Writing application : v24.0.0 ('Beyond The Pale') 64-bit
Writing library : libebml v1.3.6 + v1.4.9
Cover : Yes
Attachments : cover.jpg

Video
ID : 1
Format : AVC
Format/Info : Advanced Video Codec
Format profile : [email protected]
Format settings : CABAC / 5 Ref Frames
Format settings, CABAC : Yes
Format settings, ReFrames : 5 frames
Codec ID : V_MPEG4/ISO/AVC
Duration : 1 h 54 min
Bit rate : 11.0 Mb/s
Width : 1 920 pixels
Height : 800 pixels
Display aspect ratio : 2.40:1
Frame rate mode : Constant
Frame rate : 23.976 (24000/1001) FPS
Color space : YUV
Chroma subsampling : 4:2:0
Bit depth : 8 bits
Scan type : Progressive
Bits/(Pixel*Frame) : 0.299
Stream size : 8.79 GiB (85%)
Title : That's My Boy (2012)
Writing library : core 128 r2216 198a7ea
Encoding settings : cabac=1 / ref=5 / deblock=1:-3:-3 / analyse=0x3:0x133 / me=umh / subme=11 / psy=1 / psy_rd=1.00:0.05 / mixed_ref=1 / me_range=32 / chroma_me=1 / trellis=2 / 8x8dct=1 / cqm=0 / deadzone=21,11 / fast_pskip=0 / chroma_qp_offset=-3 / threads=16 / lookahead_threads=2 / sliced_threads=0 / nr=0 / decimate=0 / interlaced=0 / bluray_compat=0 / constrained_intra=0 / bframes=8 / b_pyramid=2 / b_adapt=2 / b_bias=0 / direct=3 / weightb=1 / open_gop=0 / weightp=2 / keyint=240 / keyint_min=23 / scenecut=40 / intra_refresh=0 / rc_lookahead=40 / rc=2pass / mbtree=0 / bitrate=11000 / ratetol=1.0 / qcomp=0.65 / qpmin=0 / qpmax=69 / qpstep=4 / cplxblur=20.0 / qblur=0.5 / vbv_maxrate=50000 / vbv_bufsize=62500 / nal_hrd=none / ip_ratio=1.30 / pb_ratio=1.30 / aq=1:0.95
Language : English
Default : Yes
Forced : No

Audio #1
ID : 2
Format : AC-3
Format/Info : Audio Coding 3
Codec ID : A_AC3
Duration : 1 h 54 min
Bit rate mode : Constant
Bit rate : 448 kb/s
Channel(s) : 6 channels
Channel positions : Front: L C R, Side: L R, LFE
Sampling rate : 48.0 kHz
Frame rate : 31.250 FPS (1536 SPF)
Bit depth : 16 bits
Compression mode : Lossy
Stream size : 367 MiB (3%)
Title : Dub
Language : Ukrainian
Service kind : Complete Main
Default : Yes
Forced : Yes

Audio #2
ID : 3
Format :
Format/Info : Digital Theater Systems
Codec ID : A_DTS
Duration : 1 h 54 min
Bit rate mode : Constant
Bit rate : 1 509 kb/s
Channel(s) : 6 channels
Channel positions : Front: L C R, Side: L R, LFE
Sampling rate : 48.0 kHz
Frame rate : 93.750 FPS (512 SPF)
Bit depth : 24 bits
Compression mode : Lossy
Stream size : 1.21 GiB (12%)
Title : Original
Language : English
Default : No
Forced : No

Text #1
ID : 4
Format : UTF-8
Codec ID : S_TEXT/UTF8
Codec ID/Info : UTF-8 Plain Text
Duration : 1 h 37 min
Bit rate : 1 b/s
Count of elements : 29
Stream size : 1.38 KiB (0%)
Title : Forced
Language : Ukrainian
Default : Yes
Forced : Yes

Text #2
ID : 5
Format : UTF-8
Codec ID : S_TEXT/UTF8
Codec ID/Info : UTF-8 Plain Text
Duration : 1 h 47 min
Bit rate : 92 b/s
Count of elements : 2293
Stream size : 72.5 KiB (0%)
Title : Full
Language : English
Default : No
Forced : No

Menu
00:00:00.000 : en:
00:08:33.763 : en:
00:12:59.403 : en:
00:19:42.890 : en:
00:28:30.625 : en:
00:36:19.594 : en:
00:41:24.648 : en:
00:47:24.049 : en:
00:54:21.758 : en:
01:00:19.073 : en:
01:06:46.585 : en:
01:15:04.333 : en:
01:23:11.987 : en:
01:27:55.019 : en:
01:34:12.563 : en:
01:45:36.747 : en:
Скріншоти





Джерело: &
Особиста оцінка: 8 - мені сподобалося
Особиста оцінка: 0 - не дивився
Мій пацан [Театральна версія] / That's My Boy [Theatrical Cut] (2012) 1080p Ukr/Eng | Sub Eng

Мій пацан [Театральна версія] / That's My Boy [Theatrical Cut] (2012) 1080p Ukr/Eng | Sub Eng


 Трекер:    Зареєстрований   

Завантажити / скачати фільм українською



відео для новачків



 Зареєстрований:   2018-10-07 09:13
 Розмір:   10.36 GB 
 Оцінка фільму:   8.2/10 (Голосів: 5)
   
Ваш часовий пояс: GMT + 2 Години

Нова тема   Відповісти