Еван Всемогутній / Evan Almighty (2007) 1080p 2xUkr/Eng | Sub Eng

Нові коментарі

Нова тема   Відповісти
Автор Повідомлення
staf777 
Попереджень: 1
Попереджень: 1 


З нами з: 16.11.16
Востаннє: 16.10.18
Повідомлень: 1632

2018-10-06 20:57  
Еван Всемогутній / Evan Almighty (2007) 1080p 2xUkr/Eng | Sub Eng

Еван Всемогутній / Evan Almighty (2007) 1080p 2xUkr/Eng | Sub Eng


Жанр: комедія, сімейний, фантастика
Країна: США



Кінокомпанія: Universal Pictures, Spyglass Entertainment, Relativity Media
Режисер: Том Шедьяк / Tom Shadyac
Актори: Стів Карелл / Steve Carell, Морган Фріман / Morgan Freeman, Лорен Грем / Lauren Graham, Джонні Сіммонс / Johnny Simmons, Грехем Філліпс / Graham Phillips, Джон Гудмен / John Goodman, Джиммі Беннет / Jimmy Bennett та інші

Сюжет:
Еван Бакстер, якого всемогутній бос Брюс примусив лепетати всяку нісенітницю під час прямого ефіру новин, йде з роботи на телебаченні. Але життя його відразу ж пішло вгору: він став конгресменом. І тут знов з'явився Господь Бог, який відкрив перед Еваном жахи прийдешнього і попросив терміново приступити до будівництва ковчега, беручи приклад з Ноя.


Тривалість: 01:35:40
Якість: 1080p
Відео:
кодек:
розмір кадру: 1920x816
бітрейт: 12.1 Mб/с

Аудіо # 1:
мова: українська
переклад: професійний дубльований
кодек: 5.1
бітрейт: 384 кб/с

Аудіо # 2 :
мова: українська
переклад: багатоголосий закадровий
кодек: 2.0
бітрейт: 192 кб/с

Аудіо # 3:
мова: англійська
переклад: оригінал
кодек: 5.1
бітрейт: 1509 кб/с

Субтитри:
мова: англійська
тип: програмні (м'які)
формат: *.srt

Скріншоти




MI
General
Unique ID : 162423961448205451756820089603853233042 (0x7A31B7941F2FF008750DF02805D9AB92)
Complete name : N:\Evan Almighty (2007) 1080p [2xUKR_ENG] [Hurtom].
Format :
Format version : Version 4 / Version 2
File size : 9.46 GiB
Duration : 1 h 35 min
Overall bit rate : 14.2 Mb/s
Movie name : Evan Almighty (2007) 1080p [2xUKR_ENG] [Hurtom]
Encoded date : UTC 2018-10-10 18:25:27
Writing application : v24.0.0 ('Beyond The Pale') 64-bit
Writing library : libebml v1.3.6 + v1.4.9
Cover : Yes
Attachments : cover.jpg

Video
ID : 1
Format : AVC
Format/Info : Advanced Video Codec
Format profile : [email protected]
Format settings : CABAC / 5 Ref Frames
Format settings, CABAC : Yes
Format settings, ReFrames : 5 frames
Codec ID : V_MPEG4/ISO/AVC
Duration : 1 h 35 min
Bit rate : 12.1 Mb/s
Width : 1 920 pixels
Height : 816 pixels
Display aspect ratio : 2.35:1
Frame rate mode : Constant
Frame rate : 23.976 (24000/1001) FPS
Color space : YUV
Chroma subsampling : 4:2:0
Bit depth : 8 bits
Scan type : Progressive
Bits/(Pixel*Frame) : 0.321
Stream size : 8.06 GiB (85%)
Writing library : core 130 r2274+704+40 57838ff tMod+MixAQ [[email protected] X86_64]
Encoding settings : cabac=1 / ref=5 / deblock=1:-2:-2 / analyse=0x3:0x133 / me=umh / subme=10 / psy=1 / fade_compensate=0.00 / psy_rd=1.00:0.03 / mixed_ref=1 / me_range=32 / chroma_me=1 / trellis=2 / 8x8dct=1 / cqm=0 / deadzone=21,11 / fast_pskip=0 / chroma_qp_offset=-3 / threads=12 / lookahead_threads=2 / sliced_threads=0 / nr=0 / decimate=1 / interlaced=0 / bluray_compat=0 / constrained_intra=0 / fgo=0 / bframes=9 / b_pyramid=2 / b_adapt=2 / b_bias=0 / direct=3 / weightb=1 / open_gop=0 / weightp=2 / keyint=240 / keyint_min=23 / scenecut=40 / intra_refresh=0 / rc=crf / mbtree=0 / crf=16.8700 / qcomp=0.60 / qpmin=0 / qpmax=69 / qpstep=4 / ip_ratio=1.30 / pb_ratio=1.20 / aq=4:0.80 / aq-sensitivity=10.00 / aq-ifactor=1.00 / aq-pfactor=1.00 / aq-bfactor=1.00 / aq2=0
Language : English
Default : Yes
Forced : No

Audio #1
ID : 2
Format : AC-3
Format/Info : Audio Coding 3
Codec ID : A_AC3
Duration : 1 h 35 min
Bit rate mode : Constant
Bit rate : 384 kb/s
Channel(s) : 6 channels
Channel positions : Front: L C R, Side: L R, LFE
Sampling rate : 48.0 kHz
Frame rate : 31.250 FPS (1536 SPF)
Bit depth : 16 bits
Compression mode : Lossy
Stream size : 262 MiB (3%)
Title : [UA-DUB]
Language : Ukrainian
Service kind : Complete Main
Default : Yes
Forced : Yes

Audio #2
ID : 3
Format : AC-3
Format/Info : Audio Coding 3
Codec ID : A_AC3
Duration : 1 h 35 min
Bit rate mode : Constant
Bit rate : 192 kb/s
Channel(s) : 2 channels
Channel positions : Front: L R
Sampling rate : 48.0 kHz
Frame rate : 31.250 FPS (1536 SPF)
Bit depth : 16 bits
Compression mode : Lossy
Stream size : 131 MiB (1%)
Title : [UA-MVO]
Language : Ukrainian
Service kind : Complete Main
Default : No
Forced : No

Audio #3
ID : 4
Format :
Format/Info : Digital Theater Systems
Codec ID : A_DTS
Duration : 1 h 35 min
Bit rate mode : Constant
Bit rate : 1 509 kb/s
Channel(s) : 6 channels
Channel positions : Front: L C R, Side: L R, LFE
Sampling rate : 48.0 kHz
Frame rate : 93.750 FPS (512 SPF)
Bit depth : 24 bits
Compression mode : Lossy
Stream size : 1.01 GiB (11%)
Title : Original 5.1ch 1510kbps
Language : English
Default : No
Forced : No

Text
ID : 5
Format : UTF-8
Codec ID : S_TEXT/UTF8
Codec ID/Info : UTF-8 Plain Text
Duration : 1 h 29 min
Bit rate : 76 b/s
Count of elements : 1473
Stream size : 50.4 KiB (0%)
Language : English
Default : No
Forced : No

Menu
00:00:00.000 : en:1. Change the World! (Main Titles)
00:03:37.050 : en:2. A New Home
00:10:03.144 : en:3. Cosponsoring a Bill
00:14:00.506 : en:4. Genesis 6:14
00:18:23.227 : en:5. Committee Meeting
00:23:02.506 : en:6. Lucky Day
00:29:27.849 : en:7. The Chosen One
00:33:40.769 : en:8. Ark Building for Dummies
00:38:14.209 : en:9. Construction Project
00:42:04.564 : en:10. Running With the Pack
00:44:59.739 : en:11. Ask and You Shall Receive
00:50:12.384 : en:12. Back to Work
00:56:16.081 : en:13. It's Because of Him
01:02:20.528 : en:14. Together Again
01:07:21.412 : en:15. Cutting Corners
01:11:02.800 : en:16. The Flood Is Imminent
01:16:11.025 : en:17. Get on the Ark
01:20:59.104 : en:18. A Little Help
01:23:52.986 : en:19. Capitol Hill
01:28:40.690 : en:20. Thou Shalt Do the Dance (End Titles)

Подяки:
- п. Technomate за запис з ТБ;

Джерело: &
Особиста оцінка: 7




 Трекер:    Зареєстрований   

Завантажити / скачати фільм українською



відео для новачків



 Зареєстрований:   2018-10-10 21:49
 Розмір:   9.46 GB 
 Оцінка фільму:   5.3/10 (Голосів: 4)
   
Інші релізи
darklight94 
Новенький


З нами з: 08.07.18
Востаннє: 17.10.18
Повідомлень: 19

2018-10-07 02:23  
Universal Pictures>мова:українська>DVD? Таке можливо?
havryk 
VIP


З нами з: 29.06.10
Востаннє: 17.10.18
Повідомлень: 777

2018-10-07 17:11  
darklight94, були часи у
staf777 написано:
(2007)

bot 
робот


З нами з: 30.09.07
Востаннє: 26.05.05
Повідомлень: 19956

2018-10-10 21:48  
Тему перенесено з Анонси релізів до форуму Фільми в HD


staf777

Ваш часовий пояс: GMT + 2 Години

Нова тема   Відповісти