Ганнібал / Hannibal (2001) Remux 1080p 2xUkr/Eng | Sub Eng

Нові коментарі

Нова тема   Відповісти
Автор Повідомлення
IronBee 
Поважний учасник


З нами з: 08.02.10
Востаннє: 19.12.18
Повідомлень: 211

2018-10-06 18:25  
Ганнібал / Hannibal (2001) Remux 1080p 2xUkr/Eng | Sub Eng

Ганнібал / Hannibal (2001) Remux 1080p 2xUkr/Eng | Sub Eng


Жанр: трилер, кримінальний, детектив
Країна: США, Велика Британія



Кінокомпанія: Universal Pictures, Dino De Laurentiis Productions
Режисер: Рідлі Скотт
Актори: Ентоні Гопкінс, Джуліанна Мур, Ґaрі Олдман, Рей Ліотта, Френкі Фейсон, Джанкарло Джанніні, Франческа Нері, Желько Іванек

Сюжет:
Після десяти років тривожного мовчання геніальний Ганнібал Лектор пише лист агенту ФБР Кларисі Старлінг, пропонуючи їй відновити їх перервану інтелектуальну дуель. З допомогою мільйонера Мейсона Верджера, який став черговою жертвою навіженого лікаря і тепер мріяв згодувати Лектора стаду прожерливих кабанів, Клариса виходить на слід невловимого маніяка і незабаром дізнається про те, що за ним вже полює інспектор венеціанськоїй поліції Ринальдо Пацці. Той розраховує отримати за інформацію про місцезнаходження Лектора щедру винагороду. Але примітивні пастки – заслаба перепона для голодного канібала, який все ближче підкрадаєтся до Клариси, щоби запросити свою фаворитку на найстрашнішу трапезу в її житті...



Тривалість: 02:11:23
Якість: Remux
Відео:
кодек: VC-1
розмір кадру: 1920х 1080
бітрейт: 30.3 Mб/с

Аудіо # 1:
мова: українська
переклад: багатоголосий закадровий | ICTV, НТН
кодек: 2.0
бітрейт: 192 кб/с

Аудіо # 2:
мова: українська
переклад: багатоголосий закадровий | НЛО TV, УКРАЇНА
кодек: 2.0
бітрейт: 192 кб/с

Аудіо # 3:
мова: англійська
переклад: оригінал
кодек: -HD 5.1
бітрейт: 4789 кб/с

Субтитри # 1-2:
мова: англійська (Повні, SDH)
тип: пререндерні
формат: *.PGS
Info
General
Unique ID : 21853559652216718185390435073771731700 (0x1070D7AD97C0C16110C3EE2E5C087AF4)
Complete name : E:\Films\Ганнібал Hannibal (2001) Remux 1080p 2xUkrEng Sub Eng[Hurtom].
Format :
Format version : Version 4
File size : 32.6 GiB
Duration : 2 h 11 min
Overall bit rate mode : Variable
Overall bit rate : 35.5 Mb/s
Encoded date : UTC 2018-10-04 08:52:41
Writing application : v27.0.0 ('Metropolis') 64-bit
Writing library : libebml v1.3.6 + v1.4.9

Video
ID : 1
Format : VC-1
Format profile : [email protected]
Codec ID : V_MS/VFW/FOURCC / WVC1
Codec ID/Hint : Microsoft
Duration : 2 h 11 min
Bit rate : 30.3 Mb/s
Width : 1 920 pixels
Height : 1 080 pixels
Display aspect ratio : 16:9
Frame rate mode : Constant
Frame rate : 23.976 (24000/1001) FPS
Color space : YUV
Chroma subsampling : 4:2:0
Bit depth : 8 bits
Scan type : Progressive
Compression mode : Lossy
Bits/(Pixel*Frame) : 0.610
Stream size : 27.8 GiB (85%)
Default : Yes
Forced : No

Audio #1
ID : 2
Format : AC-3
Format/Info : Audio Coding 3
Commercial name : Dolby Digital
Codec ID : A_AC3
Duration : 2 h 11 min
Bit rate mode : Constant
Bit rate : 192 kb/s
Channel(s) : 2 channels
Channel layout : L R
Sampling rate : 48.0 kHz
Frame rate : 31.250 FPS (1536 SPF)
Bit depth : 16 bits
Compression mode : Lossy
Stream size : 180 MiB (1%)
Title : 2.0 192 кб/с багатоголосий закадровий | ICTV,НТН
Language : Ukrainian
Service kind : Complete Main
Default : Yes
Forced : No

Audio #2
ID : 3
Format : AC-3
Format/Info : Audio Coding 3
Commercial name : Dolby Digital
Codec ID : A_AC3
Duration : 2 h 11 min
Bit rate mode : Constant
Bit rate : 192 kb/s
Channel(s) : 2 channels
Channel layout : L R
Sampling rate : 48.0 kHz
Frame rate : 31.250 FPS (1536 SPF)
Bit depth : 16 bits
Compression mode : Lossy
Stream size : 180 MiB (1%)
Title : 2.0 (з 5.1) 192 кб/с багатоголосий закадровий | Україна, НЛО ТV
Language : Ukrainian
Service kind : Complete Main
Default : No
Forced : No

Audio #3
ID : 4
Format : XLL
Format/Info : Digital Theater Systems
Commercial name : -HD Master Audio
Codec ID : A_DTS
Duration : 2 h 11 min
Bit rate mode : Variable
Bit rate : 4 789 kb/s
Channel(s) : 6 channels
Channel layout : C L R Ls Rs LFE
Sampling rate : 48.0 kHz
Frame rate : 93.750 FPS (512 SPF)
Bit depth : 24 bits
Compression mode : Lossless
Delay relative to video : 42 ms
Stream size : 4.40 GiB (13%)
Language : English
Default : No
Forced : No

Text #1
ID : 5
Format : PGS
Muxing mode : zlib
Codec ID : S_HDMV/PGS
Codec ID/Info : Picture based subtitle format used on BDs/HD-DVDs
Duration : 2 h 10 min
Bit rate : 36.9 kb/s
Count of elements : 2901
Stream size : 34.5 MiB (0%)
Language : English
Default : Yes
Forced : No

Text #2
ID : 6
Format : PGS
Muxing mode : zlib
Codec ID : S_HDMV/PGS
Codec ID/Info : Picture based subtitle format used on BDs/HD-DVDs
Duration : 2 h 10 min
Bit rate : 31.9 kb/s
Count of elements : 2473
Stream size : 29.8 MiB (0%)
Language : English
Default : No
Forced : No
Скріншоти





За запис з ТБ дякую пану Bohdan237

Джерело: &
Особиста оцінка: 10 - без зайвих вагань рекомендую всім!


Золотий реліз (завантажене не впливає на рейтинг)
 Трекер:    Зареєстрований   

Завантажити / скачати фільм українською



відео для новачків



 Зареєстрований:   2018-10-06 18:25
 Розмір:   32.58 GB 
 Оцінка фільму:   9.8/10 (Голосів: 6)
   
Інші релізи
   Ганнібал / Hannibal (2001) AVC 2xUkr/Eng | Sub Eng Arsenfpu  2 / 0   1.97 GB   2018-09-03 22:27 
   Ганнібал / Hannibal (2001) 1080p 2xUkr/Eng | Sub Eng drop_plz  5 / 0   9.27 GB   2018-08-08 09:30 
   Ганнібал / Hannibal (2001) 720p-mini 2xUkr/Eng | Sub Eng Bod_zik99  5 / 0   3.92 GB   2016-03-21 18:46 
Ваш часовий пояс: GMT + 2 Години

Нова тема   Відповісти