Затягни мене у пекло / Затягни мене до пекла / Drag Me to Hell (2009) Remux 1080p 2хUkr/Eng | Sub Ukr/Eng

Нові коментарі

Нова тема   Відповісти
Автор Повідомлення
staf777 
Попереджень: 1
Попереджень: 1 


З нами з: 16.11.16
Востаннє: 16.10.18
Повідомлень: 1632

2018-10-06 19:12  
Затягни мене у пекло / Затягни мене до пекла / Drag Me to Hell (2009) Remux 1080p 2хUkr/Eng | Sub Ukr/Eng

Затягни мене у пекло / Затягни мене до пекла / Drag Me to Hell (2009) Remux 1080p 2хUkr/Eng | Sub Ukr/Eng


Жанр: жахи, трилер
Країна: США



Кінокомпанія: Universal Pictures, Ghost House Pictures
Режисер: Сем Реймі (Sam Raimi)
Актори: Елісон Ломан (Alison Lohman), Джастін Лонґ (Justin Long), Лорна Равер (Lorna Raver), Ділеп Рао (Dileep Rao), Девід Пеймер (David Paymer), Адріана Барраза (Adriana Barraza) та інші.

Сюжет:
Співробітниця виконавчої служби наказує виселити стару жінку попри усі її благання з будинку за несплату кредиту. Єдине, що може старенька - наслати у відповідь на неї страшне прокляття, завдяки якому та дуже швикдо потрапить до пекла. У самої ж жертви залишається лише мізерний шанс знайти провидця, який зможе її врятувати раніше, аніж пекельні лапи дотягнуться до її грішної душі.


Тривалість: 01:38:56
Якість: Remux 1080p
Відео:
кодек:
розмір кадру: 1920x1080
бітрейт: 20.9 Mб/с

Аудіо # 1:
мова: українська
переклад: багатоголосий закадровий
кодек: 2.0
бітрейт: 192 кб/с

Аудіо # 2:
мова: українська
переклад: двоголосий закадровий
кодек: 2.0
бітрейт: 192 кб/с

Аудіо # 3:
мова: англійська
переклад: оригінал
кодек: HD MA 5.1
бітрейт: 1982 кб/с

Субтитри:
мова: українська
тип: програмні (м'які)
формат: *.srt

Субтитри:
мова: англійська
тип: програмні (м'які)
формат: *.srt
Скріншоти






MI
General
Unique ID : 215793616608843155990798184507838780881 (0xA25856BBD2D016A35531F160018B55D1)
Complete name : N:\Фільми HD\Жахи\Drag Me to Hell (2009) Remux 1080p [2хUkr][Eng][Hurtom].
Format :
Format version : Version 4 / Version 2
File size : 16.1 GiB
Duration : 1 h 38 min
Overall bit rate mode : Variable
Overall bit rate : 23.3 Mb/s
Movie name : Drag Me to Hell (2009) Remux 1080p [2хUkr][Eng][Hurtom]
Encoded date : UTC 2018-10-09 14:57:56
Writing application : v24.0.0 ('Beyond The Pale') 64-bit
Writing library : libebml v1.3.6 + v1.4.9
Cover : Yes
Attachments : cover.jpg

Video
ID : 1
Format : AVC
Format/Info : Advanced Video Codec
Format profile : [email protected]
Format settings : CABAC / 4 Ref Frames
Format settings, CABAC : Yes
Format settings, ReFrames : 4 frames
Codec ID : V_MPEG4/ISO/AVC
Duration : 1 h 38 min
Bit rate mode : Variable
Bit rate : 20.9 Mb/s
Maximum bit rate : 38.0 Mb/s
Width : 1 920 pixels
Height : 1 080 pixels
Display aspect ratio : 16:9
Frame rate mode : Constant
Frame rate : 23.976 (24000/1001) FPS
Standard : NTSC
Color space : YUV
Chroma subsampling : 4:2:0
Bit depth : 8 bits
Scan type : Progressive
Bits/(Pixel*Frame) : 0.420
Stream size : 14.4 GiB (90%)
Title : Drag Me to Hell 2009 Theatrical
Default : Yes
Forced : No
Color range : Limited
Color primaries : BT.709
Transfer characteristics : BT.709
Matrix coefficients : BT.709

Audio #1
ID : 2
Format : AC-3
Format/Info : Audio Coding 3
Codec ID : A_AC3
Duration : 1 h 38 min
Bit rate mode : Constant
Bit rate : 192 kb/s
Channel(s) : 2 channels
Channel positions : Front: L R
Sampling rate : 48.0 kHz
Frame rate : 31.250 FPS (1536 SPF)
Bit depth : 16 bits
Compression mode : Lossy
Stream size : 136 MiB (1%)
Title : [UA-MVO-TET]
Language : Ukrainian
Service kind : Complete Main
Default : Yes
Forced : Yes

Audio #2
ID : 3
Format : AC-3
Format/Info : Audio Coding 3
Codec ID : A_AC3
Duration : 1 h 38 min
Bit rate mode : Constant
Bit rate : 192 kb/s
Channel(s) : 2 channels
Channel positions : Front: L R
Sampling rate : 48.0 kHz
Frame rate : 31.250 FPS (1536 SPF)
Bit depth : 16 bits
Compression mode : Lossy
Stream size : 136 MiB (1%)
Title : [UA-DVO]
Language : Ukrainian
Service kind : Complete Main
Default : No
Forced : No

Audio #3
ID : 4
Format :
Format/Info : Digital Theater Systems
Format profile : MA / Core
Codec ID : A_DTS
Duration : 1 h 38 min
Bit rate mode : Variable / Constant
Bit rate : 1 982 kb/s / 1 509 kb/s
Channel(s) : 6 channels
Channel positions : Front: L C R, Side: L R, LFE
Sampling rate : 48.0 kHz
Frame rate : 93.750 FPS (512 SPF)
Bit depth : 16 bits
Compression mode : Lossless / Lossy
Stream size : 1.37 GiB (9%)
Language : English
Default : No
Forced : No

Text #1
ID : 5
Format : UTF-8
Codec ID : S_TEXT/UTF8
Codec ID/Info : UTF-8 Plain Text
Duration : 1 h 33 min
Bit rate : 73 b/s
Count of elements : 827
Stream size : 50.0 KiB (0%)
Language : Ukrainian
Default : No
Forced : No

Text #2
ID : 6
Format : UTF-8
Codec ID : S_TEXT/UTF8
Codec ID/Info : UTF-8 Plain Text
Duration : 1 h 33 min
Bit rate : 50 b/s
Count of elements : 1117
Stream size : 34.5 KiB (0%)
Language : English
Default : No
Forced : No

Menu
00:00:00.000 : en:Chapter 1
00:05:28.453 : en:Chapter 2
00:10:43.726 : en:Chapter 3
00:16:38.038 : en:Chapter 4
00:22:34.102 : en:Chapter 5
00:29:36.941 : en:Chapter 6
00:35:46.894 : en:Chapter 7
00:40:37.393 : en:Chapter 8
00:45:49.913 : en:Chapter 9
00:51:32.923 : en:Chapter 10
00:59:11.089 : en:Chapter 11
01:07:01.642 : en:Chapter 12
01:13:09.885 : en:Chapter 13
01:19:52.662 : en:Chapter 14
01:25:13.066 : en:Chapter 15
01:34:07.850 : en:Chapter 16
01:38:56.847 : en:Chapter 17
Подяка:
Пану MAKAPOHHIK за сиру доріжку №1,
Пані olgaya за сиру доріжку №2.
Пану robotron005 за синхронізацію обох доріжок
Джерело: & Інше
Особиста оцінка: 8 - мені сподобалося
Затягни мене у пекло / Затягни мене до пекла / Drag Me to Hell (2009) Remux 1080p 2хUkr/Eng | Sub Ukr/Eng

Затягни мене у пекло / Затягни мене до пекла / Drag Me to Hell (2009) Remux 1080p 2хUkr/Eng | Sub Ukr/Eng


Золотий реліз (завантажене не впливає на рейтинг)
 Трекер:    Зареєстрований   

Завантажити / скачати фільм українською



відео для новачків



 Зареєстрований:   2018-10-09 19:35
 Розмір:   16.09 GB 
 Оцінка фільму:   7/10 (Голосів: 3)
   
bot 
робот


З нами з: 30.09.07
Востаннє: 26.05.05
Повідомлень: 19956

2018-10-09 19:35  
Тему перенесено з Анонси релізів до форуму Фільми в HD


staf777

Ваш часовий пояс: GMT + 2 Години

Нова тема   Відповісти