Телефонна будка / Phone Booth (2002) 1080p 2xUkr/Eng | Sub Eng

Нові коментарі

Нова тема   Відповісти
Автор Повідомлення
staf777 
Попереджень: 1
Попереджень: 1 


З нами з: 16.11.16
Востаннє: 19.12.18
Повідомлень: 1940

2018-10-06 18:07  
Телефонна будка / Phone Booth (2002) 1080p 2xUkr/Eng | Sub Eng



Жанр: жахи, трилер
Країна: США



Кінокомпанія: Fox 2000 Pictures, Zucker/Netter Productions
Режисер: Джоель Шумахер / Joel Schumacher
Актори: Колін Фаррелл / Colin Farrell, Кіфер Сазерленд / Kiefer Sutherland, Форест Вайтакер / Forest Whitaker, Рада Мітчел / Radha Mitchell, Кеті Голмс / Katie Holmes, Паула Джей Паркер / Paula Jai Parker, Аріан Варінг Еш / Arian Waring Ash, Тіа Тексада / Tia Texada, Джон Енос ІІІ / John Enos III, Річард Т. Джонс / Richard T. Jones, Кейт Ноббс / Keith Nobbs, Делл Юнт / Dell Yount, Джеймс МакДональд / James MacDonald, Джош Пайс / Josh Pais, Йорго Костянтин / Yorgo Constantine

Сюжет:
Один телефонний дзвінок може змінити все життя людини або навіть обірвати його. Герой фільму Стью Шеферд стає полоненим телефонної будки.
Що ви зробите, якщо почуєте, як в телефонній будці задзвонив телефон? Швидше за все, інстинктивно піднімете слухавку, хоча чудово знаєте, що хтось просто помилився номером. Ось і Стью здається, що на дзвінок треба обов'язково відповісти, а в результаті він виявляється втягнутим в жахливу гру. «Тільки поклади трубку, і ти - труп», - говорить йому невидимий співбесідник.


Тривалість: 01:21:00
Якість: 1080p
Відео:
кодек:
розмір кадру: 1920x816
бітрейт: 8616 кб/с

Аудіо # 1:
мова: українська
переклад: професійний дубльований
кодек: 2.0
бітрейт: 192 кб/с

Аудіо # 2:
мова: українська
переклад: багатоголосий закадровий
кодек: 2.0
бітрейт: 192 кб/с

Аудіо # 3:
мова: англійська
переклад: оригінал
кодек: 5.1
бітрейт: 1509 кб/с

Субтитри:
мова: українська англійська
тип: програмні (м'які)
формат: *.srt
Скріншоти







MI
General
Unique ID : 329800287524056929098098346491361295533 (0xF81D3995BBEA0FBF7BC8E683B166FCAD)
Complete name : N:\Phone Booth (2002) (1080p) [2xUKR_ENG] [Hurtom].
Format :
Format version : Version 4 / Version 2
File size : 5.95 GiB
Duration : 1 h 21 min
Overall bit rate : 10.5 Mb/s
Movie name : Phone Booth (2002) (1080p) [2xUKR_ENG] [Hurtom]
Encoded date : UTC 2018-10-06 17:24:55
Writing application : v24.0.0 ('Beyond The Pale') 64-bit
Writing library : libebml v1.3.6 + v1.4.9
Cover : Yes
Attachments : cover.jpg

Video
ID : 1
Format : AVC
Format/Info : Advanced Video Codec
Format profile : [email protected]
Format settings : CABAC / 4 Ref Frames
Format settings, CABAC : Yes
Format settings, ReFrames : 4 frames
Codec ID : V_MPEG4/ISO/AVC
Duration : 1 h 21 min
Bit rate : 8 616 kb/s
Width : 1 920 pixels
Height : 816 pixels
Display aspect ratio : 2.35:1
Frame rate mode : Constant
Frame rate : 23.976 (24000/1001) FPS
Color space : YUV
Chroma subsampling : 4:2:0
Bit depth : 8 bits
Scan type : Progressive
Bits/(Pixel*Frame) : 0.229
Stream size : 4.87 GiB (82%)
Title : Phone Booth (2002)
Writing library : core 130 r2273 b3065e6
Encoding settings : cabac=1 / ref=4 / deblock=1:-3:-3 / analyse=0x3:0x133 / me=umh / subme=10 / psy=1 / psy_rd=1.00:0.20 / mixed_ref=1 / me_range=32 / chroma_me=1 / trellis=2 / 8x8dct=1 / cqm=0 / deadzone=21,11 / fast_pskip=0 / chroma_qp_offset=-3 / threads=6 / lookahead_threads=1 / sliced_threads=0 / nr=0 / decimate=0 / interlaced=0 / bluray_compat=0 / constrained_intra=0 / bframes=7 / b_pyramid=2 / b_adapt=2 / b_bias=0 / direct=3 / weightb=1 / open_gop=0 / weightp=2 / keyint=240 / keyint_min=23 / scenecut=40 / intra_refresh=0 / rc_lookahead=50 / rc=2pass / mbtree=1 / bitrate=8616 / ratetol=1.0 / qcomp=0.60 / qpmin=0 / qpmax=69 / qpstep=4 / cplxblur=20.0 / qblur=0.5 / ip_ratio=1.40 / aq=1:1.00
Language : English
Default : Yes
Forced : No

Audio #1
ID : 2
Format : AC-3
Format/Info : Audio Coding 3
Codec ID : A_AC3
Duration : 1 h 21 min
Bit rate mode : Constant
Bit rate : 192 kb/s
Channel(s) : 2 channels
Channel positions : Front: L R
Sampling rate : 48.0 kHz
Frame rate : 31.250 FPS (1536 SPF)
Bit depth : 16 bits
Compression mode : Lossy
Stream size : 111 MiB (2%)
Title : [UA-DUB-ICTV]
Language : Ukrainian
Service kind : Complete Main
Default : Yes
Forced : Yes

Audio #2
ID : 3
Format : AC-3
Format/Info : Audio Coding 3
Codec ID : A_AC3
Duration : 1 h 21 min
Bit rate mode : Constant
Bit rate : 192 kb/s
Channel(s) : 2 channels
Channel positions : Front: L R
Sampling rate : 48.0 kHz
Frame rate : 31.250 FPS (1536 SPF)
Bit depth : 16 bits
Compression mode : Lossy
Stream size : 111 MiB (2%)
Title : [UA-MVO-2+2]
Language : Ukrainian
Service kind : Complete Main
Default : No
Forced : No

Audio #3
ID : 4
Format :
Format/Info : Digital Theater Systems
Codec ID : A_DTS
Duration : 1 h 21 min
Bit rate mode : Constant
Bit rate : 1 509 kb/s
Channel(s) : 6 channels
Channel positions : Front: L C R, Side: L R, LFE
Sampling rate : 48.0 kHz
Frame rate : 93.750 FPS (512 SPF)
Bit depth : 24 bits
Compression mode : Lossy
Stream size : 874 MiB (14%)
Title : Original
Language : English
Default : No
Forced : No

Text #1
ID : 5
Format : UTF-8
Codec ID : S_TEXT/UTF8
Codec ID/Info : UTF-8 Plain Text
Duration : 1 h 14 min
Bit rate : 192 b/s
Count of elements : 1375
Stream size : 105 KiB (0%)
Title : Full
Language : Ukrainian
Default : No
Forced : No

Text #2
ID : 6
Format : UTF-8
Codec ID : S_TEXT/UTF8
Codec ID/Info : UTF-8 Plain Text
Duration : 1 h 12 min
Bit rate : 116 b/s
Count of elements : 1253
Stream size : 62.1 KiB (0%)
Title : Full
Language : English
Default : No
Forced : No

Menu
00:00:00.000 : en:The Last Phone Booth
00:03:42.973 : en:The Publicist
00:08:58.455 : en:A Free Pizza
00:10:20.370 : en:Pam
00:11:45.955 : en:The Caller
00:14:05.595 : en:Exposed
00:17:34.387 : en:Kelly
00:21:19.320 : en:Don't Hang Up
00:23:22.359 : en:The Others
00:25:01.417 : en:Leon's Girls
00:29:00.948 : en:Guilty
00:32:00.627 : en:The Cops
00:34:57.762 : en:Captain Ramey
00:39:19.440 : en:The Center of Attention
00:43:10.296 : en:The Cell Phone
00:45:54.502 : en:She's Not My Wife
00:47:50.534 : en:The Perfect Violation
00:51:44.059 : en:Hung Up
00:54:09.621 : en:The Odds Are Even
00:56:35.767 : en:Kelly or Pam?
00:58:09.486 : en:A Sniper Situation
01:00:58.238 : en:Trust Is the Key
01:03:53.204 : en:A Chance for Redemption
01:08:50.418 : en:The Man in 604
01:11:06.095 : en:A Familiar Face
01:12:30.555 : en:You'll Be Hearing From Me
01:14:06.067 : en:A Ringing Phone
01:15:02.456 : en:End Titles
Подяка: за звукові доріжки пану karvai0
Джерело: &
Особиста оцінка: 0 - не дивився
Телефонна будка / Phone Booth (2002) 1080p 2xUkr/Eng | Sub Eng

Телефонна будка / Phone Booth (2002) 1080p 2xUkr/Eng | Sub Eng


Срібний реліз (на рейтинг впливає 50% завантаженого)
 Трекер:    Зареєстрований   

Завантажити / скачати фільм українською



відео для новачків



 Зареєстрований:   2018-10-06 21:50
 Розмір:   5.95 GB 
 Оцінка фільму:   5.7/10 (Голосів: 7)
   
Інші релізи
bot 
робот


З нами з: 30.09.07
Востаннє: 26.05.05
Повідомлень: 20375

2018-10-06 21:50  
Тему перенесено з Анонси релізів до форуму Фільми в HD


staf777

Ваш часовий пояс: GMT + 2 Години

Нова тема   Відповісти