Вище неба / Up in the Air (2009) 720p Ukr/Eng | Sub Ukr/Eng

Нові коментарі

Нова тема   Відповісти
Автор Повідомлення
staf777 
Попереджень: 1
Попереджень: 1 


З нами з: 16.11.16
Востаннє: 19.12.18
Повідомлень: 1940

2018-10-06 13:22  
Вище неба / Up in the Air (2009) 720p Ukr/Eng | Sub Ukr/Eng

Вище неба / Up in the Air (2009) 720p Ukr/Eng | Sub Ukr/Eng


Жанр: драма, романтичний
Країна: США



Кінокомпанія: Paramount Pictures, Cold Spring Pictures, DreamWorks Pictures
Режисер: Джейсон Рейтман / Jason Reitman
Актори: Джордж Клуні / George Clooney, Віра Фарміґа / Vera Farmiga, Анна Кендрік / Anna Kendrick, Джейсон Бейтман / Jason Bateman, Емі Мортон / Amy Morton, Мелані Лінскі / Melanie Lynskey, Дж. К. Сіммонс / J.K. Simmons, Сем Елліотт / Sam Elliott, Денні МакБрайд / Danny McBride, Зак Ґаліфіанакіс / Zach Galifianakis

Сюжет:
Райан Бінем — корпоративний юрист, що весь час проводить у відрядженнях. Зразковий споживач, він має успіх у корпоративних справах, чим не може похвалитися в особистому житті. Стосунки на одну ніч для нього лише частина довгого списку, який включає люкси готелів, орендовані автомобілі, електронну пошту та інші зовнішні атрибути успішного життя.


Тривалість: 01:49:20
Якість: 720p
Відео:
кодек:
розмір кадру: 1280x694
бітрейт: 4635 кб/с

Аудіо # 1:
мова: українська
переклад: професійний дубльований
кодек: 2.0
бітрейт: 192 кб/с

Аудіо # 2:
мова: англійська
переклад: оригінал
кодек: 5.1
бітрейт: 640 кб/с

Субтитри:
мова: українська
тип: програмні (м'які)
формат: *.srt

Субтитри:
мова: англійська
тип: програмні (м'які)
формат: *.srt
Скріншоти





MI
General
Unique ID : 331894390012101543901142873040679500394 (0xF9B088CF1563A013C328195A43027A6A)
Complete name : N:\Фільми HD\Драма\Up in the Air (2009) 720p [UKR_ENG] [Hurtom].
Format :
Format version : Version 4 / Version 2
File size : 4.17 GiB
Duration : 1 h 49 min
Overall bit rate : 5 457 kb/s
Movie name : Up in the Air (2009) 720p [UKR_ENG] [Hurtom]
Encoded date : UTC 2018-10-06 11:48:52
Writing application : v24.0.0 ('Beyond The Pale') 64-bit
Writing library : libebml v1.3.6 + v1.4.9
Cover : Yes
Attachments : cover.jpg

Video
ID : 1
Format : AVC
Format/Info : Advanced Video Codec
Format profile : [email protected]
Format settings : CABAC / 9 Ref Frames
Format settings, CABAC : Yes
Format settings, ReFrames : 9 frames
Codec ID : V_MPEG4/ISO/AVC
Duration : 1 h 49 min
Bit rate : 4 635 kb/s
Width : 1 280 pixels
Height : 694 pixels
Display aspect ratio : 1.85:1
Frame rate mode : Constant
Frame rate : 23.976 (24000/1001) FPS
Color space : YUV
Chroma subsampling : 4:2:0
Bit depth : 8 bits
Scan type : Progressive
Bits/(Pixel*Frame) : 0.218
Stream size : 3.53 GiB (85%)
Writing library : core 138 r2358 9e941d1
Encoding settings : cabac=1 / ref=9 / deblock=1:-3:-3 / analyse=0x3:0x133 / me=umh / subme=11 / psy=1 / psy_rd=1.00:0.00 / mixed_ref=1 / me_range=32 / chroma_me=1 / trellis=2 / 8x8dct=1 / cqm=0 / deadzone=21,11 / fast_pskip=0 / chroma_qp_offset=-2 / threads=12 / lookahead_threads=2 / sliced_threads=0 / nr=0 / decimate=1 / interlaced=0 / bluray_compat=0 / constrained_intra=0 / bframes=7 / b_pyramid=2 / b_adapt=2 / b_bias=0 / direct=3 / weightb=1 / open_gop=0 / weightp=2 / keyint=240 / keyint_min=23 / scenecut=40 / intra_refresh=0 / rc=2pass / mbtree=0 / bitrate=4635 / ratetol=2.0 / qcomp=0.60 / qpmin=0 / qpmax=69 / qpstep=4 / cplxblur=20.0 / qblur=0.5 / ip_ratio=1.40 / pb_ratio=1.30 / aq=1:0.70
Language : English
Default : Yes
Forced : No

Audio #1
ID : 2
Format : AC-3
Format/Info : Audio Coding 3
Codec ID : A_AC3
Duration : 1 h 49 min
Bit rate mode : Constant
Bit rate : 192 kb/s
Channel(s) : 2 channels
Channel positions : Front: L R
Sampling rate : 48.0 kHz
Frame rate : 31.250 FPS (1536 SPF)
Bit depth : 16 bits
Compression mode : Lossy
Stream size : 150 MiB (4%)
Title : [UA-DUB-ICTV]
Language : Ukrainian
Service kind : Complete Main
Default : Yes
Forced : Yes

Audio #2
ID : 3
Format : AC-3
Format/Info : Audio Coding 3
Codec ID : A_AC3
Duration : 1 h 49 min
Bit rate mode : Constant
Bit rate : 640 kb/s
Channel(s) : 6 channels
Channel positions : Front: L C R, Side: L R, LFE
Sampling rate : 48.0 kHz
Frame rate : 31.250 FPS (1536 SPF)
Bit depth : 16 bits
Compression mode : Lossy
Stream size : 501 MiB (12%)
Language : English
Service kind : Complete Main
Default : No
Forced : No

Text #1
ID : 4
Format : UTF-8
Codec ID : S_TEXT/UTF8
Codec ID/Info : UTF-8 Plain Text
Duration : 1 h 43 min
Bit rate : 111 b/s
Count of elements : 1449
Stream size : 84.1 KiB (0%)
Language : Ukrainian
Default : No
Forced : No

Text #2
ID : 5
Format : UTF-8
Codec ID : S_TEXT/UTF8
Codec ID/Info : UTF-8 Plain Text
Duration : 1 h 43 min
Bit rate : 73 b/s
Count of elements : 1414
Stream size : 55.9 KiB (0%)
Title : Full
Language : English
Default : No
Forced : No

Menu
00:00:00.000 : :Chapter 01
00:07:41.294 : :Chapter 02
00:11:07.000 : :Chapter 03
00:18:17.513 : :Chapter 04
00:25:44.042 : :Chapter 05
00:31:02.235 : :Chapter 06
00:36:05.163 : :Chapter 07
00:43:00.953 : :Chapter 08
00:49:15.953 : :Chapter 09
00:53:20.030 : :Chapter 10
01:00:00.430 : :Chapter 11
01:07:38.763 : :Chapter 12
01:17:39.572 : :Chapter 13
01:24:48.125 : :Chapter 14
01:28:41.399 : :Chapter 15
01:33:25.683 : :Chapter 16
01:40:34.695 : :Chapter 17
01:44:08.242 : :Chapter 18
Висловлюю подяку п. OlegCena, MAKAPOHHIK за наданий сирий звук та пану karvai0 за зведення доріжки і п. Віктор за відредаговані українські субтитри.
Джерело: &
Особиста оцінка: 0 - не дивився
Вище неба / Up in the Air (2009) 720p Ukr/Eng | Sub Ukr/Eng

Вище неба / Up in the Air (2009) 720p Ukr/Eng | Sub Ukr/Eng


 Трекер:    Зареєстрований   

Завантажити / скачати фільм українською



відео для новачків



 Зареєстрований:   2018-10-06 17:54
 Розмір:   4.17 GB 
 Оцінка фільму:   6.1/10 (Голосів: 8)
   
Інші релізи
   Вище неба / Up in the Air (2009) AVC Ukr/Eng | Sub Ukr/Eng staf777  13 / 0   2.27 GB   2018-10-03 22:22 
   Вище неба / Up in the Air (2009) 1080p Ukr/Eng | Sub Ukr/Eng ninenine  4 / 0   10.97 GB   2015-04-19 22:39 
   Вище неба / Up in the Air (2009) Ukr/Eng | Sub Ukr/Eng karvai0  5 / 3   1.74 GB   2013-03-06 19:07 
bot 
робот


З нами з: 30.09.07
Востаннє: 26.05.05
Повідомлень: 20375

2018-10-06 17:53  
Тему перенесено з Анонси релізів до форуму Фільми в HD


staf777

Ваш часовий пояс: GMT + 2 Години

Нова тема   Відповісти