Ульзана / Ulzana (1974) 720p Ukr/Ger

Нові коментарі

Нова тема   Відповісти
Останній раз роздавалося staf777 (2018-12-19)
Автор Повідомлення
staf777 
Попереджень: 1
Попереджень: 1 


З нами з: 16.11.16
Востаннє: 19.12.18
Повідомлень: 1939

2018-10-06 12:15  
Ульзана / Ulzana (1974) 720p Ukr/Ger

Ульзана / Ulzana (1974) 720p Ukr/Ger


Жанр: вестерн
Країна: НДР, СРСР, Румунія



Кінокомпанія: Deutsche Film (DEFA), Filmstudio Bucuresti, Mosfilm
Режисер: Ґоттфрід Колдіц
Актори: Ґойко Мітіч, Рената Блюм, Рольф Гоппе та інші

Сюжет:
Кінець сорокових років XIX століття, Аризона. Внаслідок Американо-мексиканської війни США отримали значні території. Частина земель була надана індіанцям-апачам. Індіанці племені Мімбреньйо стали хліборобами, побудували зрошувальну споруду і святкують своє перше свято урожаю. Урожай вродив багатий, і індіанці збираються продати надлишки.


Тривалість: 01:30:47
Якість: 720p
Відео:
кодек:
розмір кадру: 1280x546
бітрейт: 11900 кб/с

Аудіо # 1:
мова: українська
переклад: двоголосий закадровий
кодек: 2.0
бітрейт: 192 кб/с

Аудіо # 2:
мова: німецька
переклад: оригінал
кодек: 2.0
бітрейт: 384 кб/с
Info
General
Unique ID : 212859627143371416038353999659149977541 (0xA02345E274070B5989F8AFF3C61667C5)
Complete name : N:\Ulzana (1974) 720p [UA][GER][Hurtom].
Format :
Format version : Version 4 / Version 2
File size : 7.90 GiB
Duration : 1 h 30 min
Overall bit rate : 12.5 Mb/s
Movie name : Ulzana (1974) 720p [UA][GER][Hurtom]
Encoded date : UTC 2018-10-06 09:31:03
Writing application : v24.0.0 ('Beyond The Pale') 64-bit
Writing library : libebml v1.3.6 + v1.4.9
Cover : Yes
Attachments : cover.jpg

Video
ID : 1
Format : AVC
Format/Info : Advanced Video Codec
Format profile : [email protected]
Format settings : CABAC / 11 Ref Frames
Format settings, CABAC : Yes
Format settings, ReFrames : 11 frames
Codec ID : V_MPEG4/ISO/AVC
Duration : 1 h 30 min
Bit rate : 11.9 Mb/s
Width : 1 280 pixels
Height : 546 pixels
Display aspect ratio : 2.35:1
Frame rate mode : Constant
Frame rate : 25.000 FPS
Color space : YUV
Chroma subsampling : 4:2:0
Bit depth : 8 bits
Scan type : Progressive
Bits/(Pixel*Frame) : 0.680
Stream size : 7.53 GiB (95%)
Writing library : core 148 r2692+54 69a6f49 t_mod_Custom [[email protected] X86_64]
Encoding settings : cabac=1 / ref=11 / deblock=1:-3:-3 / analyse=0x3:0x133 / me=umh / subme=10 / psy=1 / fade_compensate=0.00 / psy_rd=1.05:0.05 / mixed_ref=1 / me_range=24 / chroma_me=1 / trellis=2 / 8x8dct=1 / cqm=0 / deadzone=21,11 / fast_pskip=0 / chroma_qp_offset=-3 / threads=6 / lookahead_threads=1 / sliced_threads=0 / nr=0 / decimate=1 / interlaced=0 / bluray_compat=0 / constrained_intra=0 / fgo=0 / bframes=9 / b_pyramid=2 / b_adapt=2 / b_bias=0 / direct=3 / weightb=1 / open_gop=0 / weightp=2 / keyint=250 / keyint_min=25 / scenecut=40 / intra_refresh=0 / rc_lookahead=60 / rc=crf / mbtree=0 / crf=16.5000 / qcomp=0.60 / qpmin=0:0:0 / qpmax=69:69:69 / qpstep=4 / vbv_maxrate=62500 / vbv_bufsize=78125 / crf_max=0.0 / nal_hrd=none / filler=0 / ip_ratio=1.30 / pb_ratio=1.20 / aq=1:0.70 / aq-sensitivity=10.00 / aq-factor=1.00:1.00:1.00 / aq2=1:0.60 / aq2-sensitivity=15.00 / aq2-factor=1.00:1.00:1.00 / aq3=1:[0.50:0.50]:[0.50:0.50]:[0.50:0.50]:[0.50:0.50] / aq3-sensitivity=10.00 / aq3-factor=[1.00:1.00]:[1.00:1.00]:[1.00:1.00] / aq3-boundary=192:64:24
Language : English
Default : Yes
Forced : No
Color range : Limited
Color primaries : BT.709
Transfer characteristics : BT.709
Matrix coefficients : BT.709

Audio #1
ID : 2
Format : AC-3
Format/Info : Audio Coding 3
Codec ID : A_AC3
Duration : 1 h 30 min
Bit rate mode : Constant
Bit rate : 192 kb/s
Channel(s) : 2 channels
Channel positions : Front: L R
Sampling rate : 48.0 kHz
Frame rate : 31.250 FPS (1536 SPF)
Bit depth : 16 bits
Compression mode : Lossy
Stream size : 125 MiB (2%)
Title : [UA-DVO]
Language : Ukrainian
Service kind : Complete Main
Default : Yes
Forced : Yes

Audio #2
ID : 3
Format : AC-3
Format/Info : Audio Coding 3
Codec ID : A_AC3
Duration : 1 h 30 min
Bit rate mode : Constant
Bit rate : 384 kb/s
Channel(s) : 2 channels
Channel positions : Front: L R
Sampling rate : 48.0 kHz
Frame rate : 31.250 FPS (1536 SPF)
Bit depth : 16 bits
Compression mode : Lossy
Stream size : 249 MiB (3%)
Language : German
Service kind : Complete Main
Default : No
Forced : No

Menu
00:00:00.000 : en:00:00:00.000
00:16:48.480 : en:00:16:48.480
00:31:16.360 : en:00:31:16.360
00:44:12.600 : en:00:44:12.600
00:57:24.520 : en:00:57:24.520
01:14:41.040 : en:01:14:41.040
01:30:32.880 : en:01:30:32.880
Скріншоти



Джерело: &
Ульзана / Ulzana (1974) 720p Ukr/Ger

Ульзана / Ulzana (1974) 720p Ukr/Ger


Срібний реліз (на рейтинг впливає 50% завантаженого)
 Трекер:    Зареєстрований   

Завантажити / скачати фільм українською



відео для новачків



 Зареєстрований:   2018-10-06 12:15
 Розмір:   7.9 GB 
 Оцінка фільму:   7/10 (Голосів: 6)
   
Інші релізи
   Ульзана / Ulzana (1974) Remux 1080i Ukr/Ger kryk-v.ya.  3 / 0   19.39 GB   2018-10-05 18:37 
   Ульзана / Ульцана / Ulzana (1974) krigg070  1 / 0   1.46 GB   2017-11-05 23:38 
Ваш часовий пояс: GMT + 2 Години

Нова тема   Відповісти