Людина-мураха та Оса / Ant-Man and the Wasp (2018) Remux 1080p Ukr/Eng | Sub Eng

Нові коментарі

Нова тема   Відповісти
Автор Повідомлення
staf777 
Попереджень: 1
Попереджень: 1 


З нами з: 16.11.16
Востаннє: 16.12.18
Повідомлень: 1920

2018-10-06 10:39  
Людина-мураха та Оса / Ant-Man and the Wasp (2018) Remux 1080p Ukr/Eng | Sub Eng

Людина-мураха та Оса / Ant-Man and the Wasp (2018) Remux 1080p Ukr/Eng | Sub Eng
Усі українські постери:









Жанр: бойовик, пригодницький, фантастика
Країна: США



Кінокомпанія: Marvel Studios
Режисер: Пейтон Рід
Актори: Пол Радд, Еванджелін Ліллі, Майкл Пенья, Волтон Гоггінс, Боббі Каннавале, Джуді Грір, Ті Ай, Еббі Райдер Фортсон

Сюжет:
Найдотепніший супергерой Всесвіту Марвел на новому суперзавданні! З допомогою свого унікального костюма Людина-Мураха може зменшуватися і збільшуватися до будь-яких розмірів, що дозволяє йому виходити переможцем з найнебезпечніших ситуацій. Та коли могутній ворог кидає виклик, супергерой отримує нового союзника – безстрашну Осу.
Офіційні українські трейлери та відео:

трейлер 1:


трейлер 2:


промо 1:


промо 2:


промо 3:

Рейтинг MPAA: PG-13 - дітям до 13 років перегляд не бажаний
Вікова категорія: 12+

Тривалість: 01:58:06
Якість: Remux 1080p

Відео:
кодек:
розмір кадру: 1920x1080
бітрейт: 31,7 Мб/с

Аудіо # 1:
мова: українська
переклад: професійний дубльований | студія LeDoyen
кодек: HD MA 5.1
бітрейт: 3677 кб/с
Інформація про дубляж
Переклад: Олег Колесніков
Режисер дубляжу: Анна Пащенко
Ролі дублювали:
Скотт Ленґ / Людина-мураха / Пол Радд - Андрій Твердак,
Гоуп Ван Дайн / Оса / Еванджелін Ліллі - Світлана Шекера,
Луїс / Майкл Пенья - Назар Задніпровський,
Генк Пінн / Майкл Дуґлас - Владислав Пупков
Білл Фостер / Лоуренс Фішберн - Євген Сінчуков,
Сонні Берч / Волтон Гоггінс - Олександр Форманчук,
Джиммі Ву / Рендолл Парк - Акмал Гурєзов,
Аудіо # 2:
мова: українська
переклад: професійний дубльований | студія LeDoyen
кодек: 5.1
бітрейт: 640 кб/с

Аудіо #3:
мова: англійська
переклад: оригінал
кодек: -HD MA 7.1
бітрейт: 4788 кб/с

Субтитри # 1:
мова: українська (форсовані)
тип: програмні (м'які)
формат: *.srt

Субтитри # 2:
мова: англійська
тип: програмні (м'які)
формат: *.srt

Збережено оригінальні розділи, як на Blu-ray
Info
Код:

General
Unique ID                   : 296622395140842799954614871288185080893 (0xDF2765323BEC91246841085C94E3CC3D)
Complete name               : N:\Фільми HD\Фантастика\Ant-Man and the Wasp (2018) Remux 1080p [UKR_ENG] [Hurtom].
Format                      :
Format version              : Version 4 / Version 2
File size                   : 33.7 GiB
Duration                    : 1 h 58 min
Overall bit rate mode       : Variable
Overall bit rate            : 40.8 Mb/s
Movie name                  :  Ant-Man and the Wasp (2018) Remux 1080p [UKR_ENG] [Hurtom]
Encoded date                : UTC 2018-11-15 06:39:03
Writing application         : v24.0.0 ('Beyond The Pale') 64-bit
Writing library             : libebml v1.3.6 + v1.4.9
Cover                       : Yes
Attachments                 : cover.jpg

Video
ID                          : 1
Format                      : AVC
Format/Info                 : Advanced Video Codec
Format profile              : [email protected]
Format settings             : CABAC / 4 Ref Frames
Format settings, CABAC      : Yes
Format settings, ReFrames   : 4 frames
Format settings, GOP        : M=3, N=12
Codec ID                    : V_MPEG4/ISO/AVC
Duration                    : 1 h 58 min
Bit rate mode               : Variable
Bit rate                    : 31.7 Mb/s
Maximum bit rate            : 34.5 Mb/s
Width                       : 1 920 pixels
Height                      : 1 080 pixels
Display aspect ratio        : 16:9
Frame rate mode             : Constant
Frame rate                  : 23.976 (24000/1001) FPS
Color space                 : YUV
Chroma subsampling          : 4:2:0
Bit depth                   : 8 bits
Scan type                   : Progressive
Bits/(Pixel*Frame)          : 0.638
Stream size                 : 26.2 GiB (78%)
Title                       : _Ant-Man and the Wasp.2018.Remux.1080p.NNMClub
Language                    : English
Default                     : No
Forced                      : No

Audio #1
ID                          : 2
Format                      :
Format/Info                 : Digital Theater Systems
Format profile              : MA / Core
Codec ID                    : A_DTS
Duration                    : 1 h 58 min
Bit rate mode               : Variable / Constant
Bit rate                    : 3 677 kb/s / 1 509 kb/s
Channel(s)                  : 6 channels
Channel positions           : Front: L C R, Side: L R, LFE
Sampling rate               : 48.0 kHz
Frame rate                  : 93.750 FPS (512 SPF)
Bit depth                   : 24 bits
Compression mode            : Lossless / Lossy
Stream size                 : 3.03 GiB (9%)
Title                       : HD MA 5.1 @ 1536 kbps
Language                    : Ukrainian
Default                     : Yes
Forced                      : Yes

Audio #2
ID                          : 3
Format                      : AC-3
Format/Info                 : Audio Coding 3
Codec ID                    : A_AC3
Duration                    : 1 h 58 min
Bit rate mode               : Constant
Bit rate                    : 640 kb/s
Channel(s)                  : 6 channels
Channel positions           : Front: L C R, Side: L R, LFE
Sampling rate               : 48.0 kHz
Frame rate                  : 31.250 FPS (1536 SPF)
Bit depth                   : 16 bits
Compression mode            : Lossy
Stream size                 : 541 MiB (2%)
Title                       : 5.1 @ 640 kbps
Language                    : Ukrainian
Service kind                : Complete Main
Default                     : No
Forced                      : No

Audio #3
ID                          : 4
Format                      :
Format/Info                 : Digital Theater Systems
Format profile              : MA / Core
Codec ID                    : A_DTS
Duration                    : 1 h 58 min
Bit rate mode               : Variable / Constant
Bit rate                    : 4 788 kb/s / 1 509 kb/s
Channel(s)                  : 8 channels / 6 channels
Channel positions           : Front: L C R, Side: L R, Back: L R, LFE / Front: L C R, Side: L R, LFE
Sampling rate               : 48.0 kHz
Frame rate                  : 93.750 FPS (512 SPF)
Bit depth                   : 24 bits
Compression mode            : Lossless / Lossy
Stream size                 : 3.95 GiB (12%)
Language                    : English
Default                     : No
Forced                      : No

Text #1
ID                          : 5
Format                      : UTF-8
Codec ID                    : S_TEXT/UTF8
Codec ID/Info               : UTF-8 Plain Text
Duration                    : 1 h 54 min
Bit rate                    : 0 b/s
Count of elements           : 5
Stream size                 : 268 Bytes (0%)
Language                    : Ukrainian
Default                     : Yes
Forced                      : Yes

Text #2
ID                          : 6
Format                      : UTF-8
Codec ID                    : S_TEXT/UTF8
Codec ID/Info               : UTF-8 Plain Text
Duration                    : 1 h 57 min
Bit rate                    : 68 b/s
Count of elements           : 2136
Stream size                 : 59.2 KiB (0%)
Language                    : English
Default                     : No
Forced                      : No

Menu
00:00:00.000                : en:00:00:00.000
00:04:03.034                : en:00:04:03.034
00:10:16.407                : en:00:10:16.407
00:13:39.861                : en:00:13:39.861
00:21:25.451                : en:00:21:25.451
00:29:07.829                : en:00:29:07.829
00:36:09.084                : en:00:36:09.084
00:40:56.579                : en:00:40:56.579
00:50:17.431                : en:00:50:17.431
00:58:59.077                : en:00:58:59.077
01:04:56.434                : en:01:04:56.434
01:12:54.287                : en:01:12:54.287
01:18:32.124                : en:01:18:32.124
01:24:44.913                : en:01:24:44.913
01:29:47.340                : en:01:29:47.340
01:36:16.270                : en:01:36:16.270
01:43:35.334                : en:01:43:35.334
01:46:59.830                : en:01:46:59.830








Подяка пану Hanway за синхронізацію звуку.

Джерело: &
Подяка Electroz'у за субтитри та igor911 за допомогу в створені релізу


Золотий реліз (завантажене не впливає на рейтинг)
 Трекер:    Зареєстрований   

Завантажити / скачати фільм українською



відео для новачків



 Зареєстрований:   2018-11-15 09:39
 Розмір:   33.7 GB 
 Оцінка фільму:   8.7/10 (Голосів: 42)
   
MrRyanCooper 
VIP


З нами з: 23.08.12
Востаннє: 15.12.18
Повідомлень: 483

2018-10-06 11:03  
дяка, ввечері чекаем
bot 
робот


З нами з: 30.09.07
Востаннє: 26.05.05
Повідомлень: 20349

2018-10-06 16:02  
Тему перенесено з Анонси релізів до форуму Фільми в HD


staf777

Koful 
Поважний учасник


З нами з: 05.12.16
Востаннє: 14.12.18
Повідомлень: 218

2018-10-08 09:48  
Є ось такий open matte
http://www.framecompare.com/image-compare/screenshotcomparison/0JEJNNNU
з боків трохи прибрали (місцями) а зверху та знизу добавили.
Потрібен?

O_omarella! 
Свій


З нами з: 14.06.13
Востаннє: 15.12.18
Повідомлень: 80

2018-11-11 21:46  
Затягнута нудотина...
libracinema 
Новенький


З нами з: 27.10.17
Востаннє: 16.12.18
Повідомлень: 9

2018-11-14 01:21  
Коли буде звук 5.1?
Хтось в курсі, чому фільми, які вийшли в кінотеатрах у травні, з'являються тут із звуком 5.1 через тиждень-два після виходу на itunes, а всі інші через 2-3 місяці?

Додано через 30 хвилин 26 секунд:

Я маю на увазі Marvel

libracinema 
Новенький


З нами з: 27.10.17
Востаннє: 16.12.18
Повідомлень: 9

2018-11-15 10:45  
Нарешті нормальний звук. Щиро дякую!
Ваш часовий пояс: GMT + 2 Години

Нова тема   Відповісти