Формула 1. Сезон 2018. Етап 17. Гран-Прі Японії. Кваліфікація (06.10.2018) HDTV 1080i

Нові коментарі

Нова тема   Відповісти
Автор Повідомлення
sergiyko.5 
Забанено
Забанено


З нами з: 25.02.16
Востаннє: 29.10.20
Повідомлень: 3651

2018-10-06 09:39  
Формула 1. Сезон 2018. Етап 17. Гран-Прі Японії. Кваліфікація (06.10.2018) HDTV 1080i


Формула 1. Сезон 2018. Етап 17. Гран-Прі Японії. Кваліфікація (06.10.2018) HDTV 1080i

Жанр: Перегони Формула 1
Країна: Японія
Телеканал: Перший автомобільний
Коментатор: Максим Подзігун

Опис:
Кваліфікація сімнадцятого етапу Гран-Прі Японії 2018 року відбулась 6 жовтня 2018 року о 9 годині за київським часом.


Тривалість: 01:18:22
Якість: HDTV

Відео:кодек: розмір кадру: 1920 х 1080 бітрейт: 5400 кб/с
Аудіо: мова: українська кодек: 2.0 бітрейт: 128 кб/с
Про файл:
General
Unique ID : 323492095984799556134999116626461920790 (0xF35E4FBABA01523BA8CA152B5A4B0E16)
Complete name : D:\Torrents\SPORT\Formula 1\F1.2018.Qualifying\F1.2018.17.Japan.Qualifying.1080i.HDTV.Ukr.
Format :
Format version : Version 4 / Version 2
File size : 3.02 GiB
Duration : 1 h 18 min
Overall bit rate : 5 524 kb/s
Encoded date : UTC 2018-10-06 07:37:01
Writing application : v27.0.0 ('Metropolis') 64-bit
Writing library : libebml v1.3.6 + v1.4.9

Video
ID : 1
Format : AVC
Format/Info : Advanced Video Codec
Format profile : [email protected]
Format settings : CABAC / 4 Ref Frames
Format settings, CABAC : Yes
Format settings, ReFrames : 4 frames
Codec ID : V_MPEG4/ISO/AVC
Duration : 1 h 18 min
Bit rate : 5 363 kb/s
Width : 1 920 pixels
Height : 1 080 pixels
Display aspect ratio : 16:9
Frame rate mode : Variable
Frame rate : 26.827 FPS
Original frame rate : 25.000 FPS
Standard : Component
Color space : YUV
Chroma subsampling : 4:2:0
Bit depth : 8 bits
Scan type : MBAFF
Scan type, store method : Interleaved fields
Scan order : Top Field First
Bits/(Pixel*Frame) : 0.096
Stream size : 2.94 GiB (97%)
Language : English
Default : Yes
Forced : No
Color range : Limited
Color primaries : BT.709
Transfer characteristics : BT.709
Matrix coefficients : BT.709

Audio
ID : 2
Format :
Format/Info : Advanced Audio Codec
Format profile : LC
Codec ID : A_AAC-2
Duration : 1 h 18 min
Bit rate : 158 kb/s
Channel(s) : 2 channels
Channel positions : Front: L R
Sampling rate : 48.0 kHz
Frame rate : 46.875 FPS (1024 SPF)
Compression mode : Lossy
Delay relative to video : 9 ms
Stream size : 88.6 MiB (3%)
Title : Максим Подзігун
Language : Ukrainian
Default : Yes
Forced : No
Скріншоти:


Автор запису: sergiyko


 Трекер:    Зареєстрований   

Завантажити / скачати торрент



відео для новачків



 Зареєстрований:   2018-10-06 09:39
 Розмір:   3.02 GB 
 Оцінка:   10/10 (Голосів: 17)
   
VicCob 
Свій


З нами з: 16.06.10
Востаннє: 25.10.20
Повідомлень: 58

2018-10-06 10:46  
Дякую!
Енотвсапогах 
Новенький


З нами з: 06.10.18
Востаннє: 06.10.18
Повідомлень: 1

2018-10-06 11:16  
Дякую!
sergiyko.5 
Забанено
Забанено


З нами з: 25.02.16
Востаннє: 29.10.20
Повідомлень: 3651

2018-10-07 09:56  
Запис гонки невідомо коли з'явиться, технічна несправність домашнього інтернету, провайдер "Воля" зламався зранку.
rudik73 
Новенький


З нами з: 07.10.18
Востаннє: 25.10.20
Повідомлень: 8

2018-10-07 10:06  
ой фей
яка сумна новина

Ваш часовий пояс: GMT + 2 Години

Нова тема   Відповісти