Місто монстрів / Tales of Halloween (2015) 1080p Ukr/Eng | Sub Eng

Нові коментарі

Нова тема   Відповісти
Автор Повідомлення
staf777 
Попереджень: 1
Попереджень: 1 


З нами з: 16.11.16
Востаннє: 10.12.18
Повідомлень: 1890

2018-10-06 09:11  
Місто монстрів / Tales of Halloween (2015) 1080p Ukr/Eng | Sub Eng

Місто монстрів / Tales of Halloween (2015) 1080p Ukr/Eng | Sub Eng


Жанр: жахи
Країна: США



Кінокомпанія: Epic Pictures Group, Film Entertainment Services
Режисер: Даррен Лінн Боусман, Пол Солет, Аксель Керолін, Адам Ґіраш, Ніл Маршалл
Актори: Ґрейс Філіппс, Гантер Сміт, Роберт Раслер, Медісон Айсман, Тіфані Шепіс та інші...

Сюжет:
Тільки на одну ніч американське передмістя стає жахливим місцем для звичайних жителів. І, звичайно ж, це ніч Гелловіна. Ніщо не врятує невинних жертв від розправи. Але чи так вони невинні? Вас очікують десять оповідань. Історія жадібної няні та її хлопця. Хлопчик, який намагався поглумитися над будинком старого. Група друзів, що займаються вбивствами. Молодий хлопець намагається помститися за смерть близьких. Дівчина, яку переслідує злий дух. Чоловік, який усвідомив, що живе зі справжньою відьмою. Боротьба сусідів за кращі гелловінські прикраси будинків. Серійний вбивця зустрічає гідного суперника. Грабіжники-невдахи і генна інженерія.


Тривалість: 01:37:15
Якість: 1080p
Відео:
кодек:
розмір кадру: 1920x804
бітрейт: 10.6 Mб/с

Аудіо # 1:
мова: українська
переклад: багатоголосий закадровий
кодек: 2.0
бітрейт: 192 кб/с

Аудіо # 2:
мова: англійська
переклад: оригінал
кодек: 5.1
бітрейт: 1509 кб/с

Субтитри # 1-2:
мова: англійська
тип: пререндерні
формат: *.pgs
Info
General
Unique ID : 287194632700228334537069236434240890432 (0xD80FAC9ED304AA9001BCC62DE5F56640)
Complete name : N:\Фільми HD\Жахи\Tales of Halloween (2015) 1080p [UKR_ENG] [Hurtom].
Format :
Format version : Version 4 / Version 2
File size : 8.38 GiB
Duration : 1 h 37 min
Overall bit rate : 12.3 Mb/s
Movie name : Tales of Halloween (2015) 1080p [UKR_ENG] [Hurtom]
Encoded date : UTC 2018-10-06 06:49:10
Writing application : v24.0.0 ('Beyond The Pale') 64-bit
Writing library : libebml v1.3.6 + v1.4.9
Cover : Yes
Attachments : cover.jpg

Video
ID : 1
Format : AVC
Format/Info : Advanced Video Codec
Format profile : [email protected]
Format settings : CABAC / 4 Ref Frames
Format settings, CABAC : Yes
Format settings, ReFrames : 4 frames
Codec ID : V_MPEG4/ISO/AVC
Duration : 1 h 37 min
Bit rate : 10.6 Mb/s
Width : 1 920 pixels
Height : 804 pixels
Display aspect ratio : 2.40:1
Frame rate mode : Constant
Frame rate : 24.000 FPS
Color space : YUV
Chroma subsampling : 4:2:0
Bit depth : 8 bits
Scan type : Progressive
Bits/(Pixel*Frame) : 0.287
Stream size : 7.22 GiB (86%)
Writing library : core 142 r2431+42 c69a006 tMod [[email protected]:2:0 X86_64]
Encoding settings : cabac=1 / ref=4 / deblock=1:-3:-3 / analyse=0x3:0x113 / me=umh / subme=11 / psy=1 / fade_compensate=0.00 / psy_rd=1.00:0.05 / mixed_ref=1 / me_range=48 / chroma_me=1 / trellis=2 / 8x8dct=1 / cqm=0 / deadzone=21,11 / fast_pskip=0 / chroma_qp_offset=-2 / threads=12 / lookahead_threads=2 / sliced_threads=0 / nr=0 / decimate=1 / interlaced=0 / bluray_compat=0 / constrained_intra=0 / fgo=0 / bframes=8 / b_pyramid=2 / b_adapt=2 / b_bias=0 / direct=3 / weightb=1 / open_gop=0 / weightp=2 / keyint=250 / keyint_min=24 / scenecut=40 / intra_refresh=0 / rc_lookahead=40 / rc=crf / mbtree=0 / crf=19.0000 / qcomp=0.60 / qpmin=0:0:0 / qpmax=69:69:69 / qpstep=4 / vbv_maxrate=50000 / vbv_bufsize=45000 / crf_max=0.0 / nal_hrd=none / filler=0 / ip_ratio=1.40 / pb_ratio=1.30 / aq=3:1.00 / aq-sensitivity=10.00 / aq-factor=1.00:1.00:1.00 / aq2=0 / aq3=0
Language : English
Default : Yes
Forced : No
Color range : Limited
Matrix coefficients : BT.709

Audio #1
ID : 2
Format : AC-3
Format/Info : Audio Coding 3
Codec ID : A_AC3
Duration : 1 h 37 min
Bit rate mode : Constant
Bit rate : 192 kb/s
Channel(s) : 2 channels
Channel positions : Front: L R
Sampling rate : 48.0 kHz
Frame rate : 31.250 FPS (1536 SPF)
Bit depth : 16 bits
Compression mode : Lossy
Stream size : 134 MiB (2%)
Title : [UA-MVO-MEGOGO]
Language : Ukrainian
Service kind : Complete Main
Default : Yes
Forced : Yes

Audio #2
ID : 3
Format :
Format/Info : Digital Theater Systems
Codec ID : A_DTS
Duration : 1 h 37 min
Bit rate mode : Constant
Bit rate : 1 509 kb/s
Channel(s) : 6 channels
Channel positions : Front: L C R, Side: L R, LFE
Sampling rate : 48.0 kHz
Frame rate : 93.750 FPS (512 SPF)
Bit depth : 24 bits
Compression mode : Lossy
Stream size : 1.03 GiB (12%)
Language : English
Default : No
Forced : No

Text #1
ID : 4
Format : PGS
Muxing mode : zlib
Codec ID : S_HDMV/PGS
Codec ID/Info : Picture based subtitle format used on BDs/HD-DVDs
Duration : 1 h 36 min
Bit rate : 22.4 kb/s
Count of elements : 1563
Stream size : 15.5 MiB (0%)
Language : English
Default : No
Forced : No

Text #2
ID : 5
Format : PGS
Muxing mode : zlib
Codec ID : S_HDMV/PGS
Codec ID/Info : Picture based subtitle format used on BDs/HD-DVDs
Duration : 1 h 36 min
Bit rate : 940 b/s
Count of elements : 62
Stream size : 663 KiB (0%)
Language : English
Default : No
Forced : No
Скріншоти



Подяка пану Covenant за доріжку

Джерело: &
Особиста оцінка: 0 - не дивився
Місто монстрів / Tales of Halloween (2015) 1080p Ukr/Eng | Sub Eng

Місто монстрів / Tales of Halloween (2015) 1080p Ukr/Eng | Sub Eng


 Трекер:    Зареєстрований   

Завантажити / скачати фільм українською



відео для новачків



 Зареєстрований:   2018-10-06 09:11
 Розмір:   8.38 GB 
 Оцінка фільму:   7.5/10 (Голосів: 4)
   
Інші релізи
leicheman 
Відео Гуртом - підтримка та поширення
Відео Гуртом - підтримка та поширення


З нами з: 03.07.14
Востаннє: 10.12.18
Повідомлень: 2990

2018-10-06 09:49  
staf777 написано:
(Mic)

якщо ви брали звук з SD роздачі то там чиста доріжка НЕ МІК

staf777 
Попереджень: 1
Попереджень: 1 


З нами з: 16.11.16
Востаннє: 10.12.18
Повідомлень: 1890

2018-10-06 22:50  
leicheman
Так брав звідти

Ваш часовий пояс: GMT + 2 Години

Нова тема   Відповісти