Місто монстрів / Tales of Halloween (2015) AVC Ukr/Eng | Sub Eng

Нові коментарі

Нова тема   Відповісти
Автор Повідомлення
staf777 
Відео Гуртом - підтримка та поширення
Відео Гуртом - підтримка та поширення


З нами з: 16.11.16
Востаннє: 06.12.19
Повідомлень: 3038

2018-10-06 09:01  
Місто монстрів / Tales of Halloween (2015) AVC Ukr/Eng | Sub Eng

Місто монстрів / Tales of Halloween (2015) AVC Ukr/Eng | Sub Eng


Жанр: жахи
Країна: США



Кінокомпанія: Epic Pictures Group, Film Entertainment Services
Режисер: Даррен Лінн Боусман, Пол Солет, Аксель Керолін, Адам Ґіраш, Ніл Маршалл
Актори: Ґрейс Філіппс, Гантер Сміт, Роберт Раслер, Медісон Айсман, Тіфані Шепіс та інші...

Сюжет:
Тільки на одну ніч американське передмістя стає жахливим місцем для звичайних жителів. І, звичайно ж, це ніч Гелловіна. Ніщо не врятує невинних жертв від розправи. Але чи так вони невинні? Вас очікують десять оповідань. Історія жадібної няні та її хлопця. Хлопчик, який намагався поглумитися над будинком старого. Група друзів, що займаються вбивствами. Молодий хлопець намагається помститися за смерть близьких. Дівчина, яку переслідує злий дух. Чоловік, який усвідомив, що живе зі справжньою відьмою. Боротьба сусідів за кращі гелловінські прикраси будинків. Серійний вбивця зустрічає гідного суперника. Грабіжники-невдахи і генна інженерія.


Тривалість: 01:37:15
Якість: AVC
Відео:
кодек:
розмір кадру: 984x412
бітрейт: 1702 кб/с

Аудіо # 1:
мова: українська
переклад: багатоголосий закадровий
кодек: 2.0
бітрейт: 192 кб/с

Аудіо # 2:
мова: англійська
переклад: оригінал
кодек: 5.1
бітрейт: 384 кб/с

Субтитри:
мова: англійська
тип: програмні (м'які)
формат: *.srt
Info
General
Unique ID : 81252777082184279225668864737969571733 (0x3D20B7347E0BCCFF7A2AABAD7CBA0795)
Complete name : N:\Tales of Halloween (2015) AVC [UKR_ENG] [Hurtom].
Format :
Format version : Version 4 / Version 2
File size : 1.55 GiB
Duration : 1 h 37 min
Overall bit rate : 2 280 kb/s
Movie name : Tales of Halloween (2015) AVC [UKR_ENG] [Hurtom]
Encoded date : UTC 2018-10-06 10:25:59
Writing application : v24.0.0 ('Beyond The Pale') 64-bit
Writing library : libebml v1.3.6 + v1.4.9
Cover : Yes
Attachments : cover.jpg

Video
ID : 1
Format : AVC
Format/Info : Advanced Video Codec
Format profile : [email protected]
Format settings : CABAC / 12 Ref Frames
Format settings, CABAC : Yes
Format settings, ReFrames : 12 frames
Codec ID : V_MPEG4/ISO/AVC
Duration : 1 h 37 min
Bit rate : 1 702 kb/s
Width : 984 pixels
Height : 412 pixels
Display aspect ratio : 2.40:1
Frame rate mode : Constant
Frame rate : 24.000 FPS
Color space : YUV
Chroma subsampling : 4:2:0
Bit depth : 8 bits
Scan type : Progressive
Bits/(Pixel*Frame) : 0.175
Stream size : 1.16 GiB (75%)
Title : potroks
Writing library : core 148 r2665M a01e339
Encoding settings : cabac=1 / ref=12 / deblock=1:-2:-2 / analyse=0x3:0x133 / me=umh / subme=11 / psy=1 / psy_rd=1.00:0.05 / mixed_ref=1 / me_range=48 / chroma_me=1 / trellis=2 / 8x8dct=1 / cqm=0 / deadzone=21,11 / fast_pskip=0 / chroma_qp_offset=-3 / threads=9 / lookahead_threads=2 / sliced_threads=0 / nr=0 / decimate=1 / interlaced=0 / bluray_compat=0 / constrained_intra=0 / bframes=13 / b_pyramid=2 / b_adapt=2 / b_bias=0 / direct=3 / weightb=1 / open_gop=0 / weightp=2 / keyint=240 / keyint_min=23 / scenecut=40 / intra_refresh=0 / rc=2pass / mbtree=0 / bitrate=1702 / ratetol=1.0 / qcomp=0.70 / qpmin=0 / qpmax=69 / qpstep=4 / cplxblur=20.0 / qblur=0.5 / ip_ratio=1.40 / pb_ratio=1.30 / aq=1:0.80
Language : English
Default : Yes
Forced : No
Color range : Limited
Color primaries : BT.709
Transfer characteristics : BT.709
Matrix coefficients : BT.709

Audio #1
ID : 2
Format : AC-3
Format/Info : Audio Coding 3
Codec ID : A_AC3
Duration : 1 h 37 min
Bit rate mode : Constant
Bit rate : 192 kb/s
Channel(s) : 2 channels
Channel positions : Front: L R
Sampling rate : 48.0 kHz
Frame rate : 31.250 FPS (1536 SPF)
Bit depth : 16 bits
Compression mode : Lossy
Stream size : 134 MiB (8%)
Title : [UA-MVO]
Language : Ukrainian
Service kind : Complete Main
Default : Yes
Forced : Yes

Audio #2
ID : 3
Format : AC-3
Format/Info : Audio Coding 3
Codec ID : A_AC3
Duration : 1 h 37 min
Bit rate mode : Constant
Bit rate : 384 kb/s
Channel(s) : 6 channels
Channel positions : Front: L C R, Side: L R, LFE
Sampling rate : 48.0 kHz
Frame rate : 31.250 FPS (1536 SPF)
Bit depth : 16 bits
Compression mode : Lossy
Stream size : 267 MiB (17%)
Language : English
Service kind : Complete Main
Default : No
Forced : No

Text
ID : 4
Format : UTF-8
Codec ID : S_TEXT/UTF8
Codec ID/Info : UTF-8 Plain Text
Duration : 1 h 30 min
Bit rate : 35 b/s
Count of elements : 680
Stream size : 23.4 KiB (0%)
Language : English
Default : No
Forced : No

Menu
00:00:00.000 : :00:00:00.000
00:03:12.208 : :00:03:12.208
00:14:10.250 : :00:14:10.250
00:22:43.500 : :00:22:43.500
00:30:40.417 : :00:30:40.417
00:39:34.333 : :00:39:34.333
00:47:23.333 : :00:47:23.333
00:55:56.500 : :00:55:56.500
01:02:29.333 : :01:02:29.333
01:09:27.375 : :01:09:27.375
01:20:16.667 : :01:20:16.667
01:30:50.167 : :01:30:50.167
Скріншоти





Подяка пану Covenant за доріжку

Джерело: &
Особиста оцінка: 0 - не дивився
Місто монстрів / Tales of Halloween (2015) AVC Ukr/Eng | Sub Eng

Місто монстрів / Tales of Halloween (2015) AVC Ukr/Eng | Sub Eng


 Трекер:    Зареєстрований   

Завантажити / скачати фільм українською



відео для новачків



 Зареєстрований:   2018-10-06 12:49
 Розмір:   1.55 GB 
 Оцінка фільму:   8.4/10 (Голосів: 11)
   
Інші релізи
bot 
робот


З нами з: 30.09.07
Востаннє: 26.05.05
Повідомлень: 22589

2018-10-06 12:49  
Тему перенесено з Анонси релізів до форуму Фільми


staf777

piznajko 
Відео Гуртом - субтитрування
Відео Гуртом - субтитрування


З нами з: 24.02.09
Востаннє: 05.12.19
Повідомлень: 1999

2018-10-06 21:11  
staf777 написано:
переклад: багатоголосий закадровий | Mic (якісний)


Тю, так це на Megogo був Mic?

igor911 
Модератор відео


З нами з: 18.01.08
Востаннє: 06.12.19
Повідомлень: 13712

2018-10-06 22:43  
staf777 написано:
| Mic

заміни, будь ласка, на якісний звук звідси https://toloka.to/t70820

staf777 
Відео Гуртом - підтримка та поширення
Відео Гуртом - підтримка та поширення


З нами з: 16.11.16
Востаннє: 06.12.19
Повідомлень: 3038

2018-10-06 22:52  
igor911
Там звук і брав - при оформленні протупив

BatenkoBMW 
Частий відвідувач


З нами з: 23.12.12
Востаннє: 30.11.19
Повідомлень: 43

2018-12-07 18:33  
Не фільм, а якась мерзота. Витримала лише 15 хв. Спецефекти жахливі, а сцени вбивств просто противно переглядати. Суцільний фільм-жах без жахів.
Ваш часовий пояс: GMT + 2 Години

Нова тема   Відповісти