Сини Великої Ведмедиці / Die Söhne der großen Bärin (1966) Remux 1080i Ukr/Ger | Sub Eng

Нові коментарі

Нова тема   Відповісти
Автор Повідомлення
kryk-v.ya. 
VIP


З нами з: 14.02.14
Востаннє: 17.12.18
Повідомлень: 740

2018-10-05 22:17  
Сини Великої Ведмедиці / Die Söhne der großen Bärin (1966) Remux 1080i Ukr/Ger | Sub Eng

Сини Великої Ведмедиці / Die Söhne der großen Bärin (1966) Remux 1080i Ukr/Ger | Sub Eng


Жанр: вестерн
Країна: НДР, Югославія



Кінокомпанія: VEB DEFA-Studio für Spielfilme, Bosna Film
Режисер: Йозеф Мах
Актори: Ґойко Мітіч, Джирі Врстала, Рольф Ромер та інші

Сюжет:
Токей-Іто, вождь «синів Великої Ведмедиці» з племені дакота, запрошений лейтенантом Роучем в Форт-Сміт. Токей-Іто остерігається зради білих і радше би бився з ними разом з верховним вождем Шаленим Конем, але старійшини племені вирішили інакше.


Тривалість: 01:28:08
Якість: Remux 1080i
Відео:
кодек:
розмір кадру: 1920 х 1080
бітрейт: 29 Мб/с

Аудіо # 1:
мова: українська
переклад: двоголосий закадровий
кодек: 2.0
бітрейт: 192 кб/с

Аудіо # 2:
мова: німецька
переклад: оригінал
кодек: -HD MA 2.0
бітрейт: 960 кб/с

Субтитри:
мова: англійська
тип: пререндерні
формат: *.pgs
Info
General
Unique ID : 23300943619614816301183240254934899191 (0x118799379ED08BAE0CDBA93ACC8659F7)
Complete name : E:\Die Söhne der großen Bärin (1966) Remux 1080i.
Format :
Format version : Version 4 / Version 2
File size : 18.5 GiB
Duration : 1 h 28 min
Overall bit rate mode : Variable
Overall bit rate : 30.0 Mb/s
Encoded date : UTC 2018-10-05 19:08:41
Writing application : v25.0.0 ('Prog Noir') 64-bit
Writing library : libebml v1.3.6 + v1.4.9
Attachments : 0011.jpg

Video
ID : 1
Format : AVC
Format/Info : Advanced Video Codec
Format profile : [email protected]
Format settings : CABAC / 3 Ref Frames
Format settings, CABAC : Yes
Format settings, ReFrames : 3 frames
Codec ID : V_MPEG4/ISO/AVC
Duration : 1 h 27 min
Bit rate mode : Variable
Bit rate : 29.0 Mb/s
Maximum bit rate : 35.0 Mb/s
Width : 1 920 pixels
Height : 1 080 pixels
Display aspect ratio : 16:9
Frame rate mode : Constant
Frame rate : 25.000 FPS
Standard : NTSC
Color space : YUV
Chroma subsampling : 4:2:0
Bit depth : 8 bits
Scan type : MBAFF
Bits/(Pixel*Frame) : 0.560
Stream size : 17.8 GiB (96%)
Default : Yes
Forced : No
Color range : Limited
Color primaries : BT.709
Transfer characteristics : BT.709
Matrix coefficients : BT.709

Audio #1
ID : 2
Format : AC-3
Format/Info : Audio Coding 3
Commercial name : Dolby Digital
Codec ID : A_AC3
Duration : 1 h 28 min
Bit rate mode : Constant
Bit rate : 192 kb/s
Channel(s) : 2 channels
Channel layout : L R
Sampling rate : 48.0 kHz
Frame rate : 31.250 FPS (1536 SPF)
Bit depth : 16 bits
Compression mode : Lossy
Stream size : 121 MiB (1%)
Title : DVO-(Ентер-фільм)
Language : Ukrainian
Service kind : Complete Main
Default : Yes
Forced : No

Audio #2
ID : 3
Format : XLL
Format/Info : Digital Theater Systems
Commercial name : -HD Master Audio
Codec ID : A_DTS
Duration : 1 h 27 min
Bit rate mode : Variable
Bit rate : 960 kb/s
Channel(s) : 2 channels
Channel layout : L R
Sampling rate : 48.0 kHz
Frame rate : 93.750 FPS (512 SPF)
Bit depth : 16 bits
Compression mode : Lossless
Stream size : 602 MiB (3%)
Title : Оригінал
Language : German
Default : No
Forced : No

Text
ID : 4
Format : PGS
Muxing mode : zlib
Codec ID : S_HDMV/PGS
Codec ID/Info : Picture based subtitle format used on BDs/HD-DVDs
Duration : 1 h 6 min
Bit rate : 14.7 kb/s
Count of elements : 786
Stream size : 7.00 MiB (0%)
Language : English
Default : Yes
Forced : No
Скріншоти





Джерело: &
Особиста оцінка: 10 - без зайвих вагань рекомендую всім!

Велика подяка пану krigg070 за запис та синхронізацію.


Золотий реліз (завантажене не впливає на рейтинг)
 Трекер:    Зареєстрований   

Завантажити / скачати фільм українською



відео для новачків



 Зареєстрований:   2018-10-05 22:17
 Розмір:   18.5 GB 
 Оцінка фільму:   10/10 (Голосів: 5)
   
Інші релізи
O_omarella! 
Свій


З нами з: 14.06.13
Востаннє: 15.12.18
Повідомлень: 80

2018-10-06 15:35  
Ґойко Мітіч та DEFA-Studio в HD!!!! Дякую!! Мое дитинство....
kryk-v.ya. 
VIP


З нами з: 14.02.14
Востаннє: 17.12.18
Повідомлень: 740

2018-10-06 16:27  
O_omarella!
моє теж.

O_omarella! 
Свій


З нами з: 14.06.13
Востаннє: 15.12.18
Повідомлень: 80

2018-10-06 18:34  
kryk-v.ya.
ех...були часи...))

kryk-v.ya. 
VIP


З нами з: 14.02.14
Востаннє: 17.12.18
Повідомлень: 740

2018-10-06 19:14  
O_omarella!
о,ні дякую,не бажаю таких часів.

Ваш часовий пояс: GMT + 2 Години

Нова тема   Відповісти