Міа та я / Mia and Me (Сезон 2) (2015) 1080p Ukr/Eng | sub Eng

Нові коментарі

Нова тема   Відповісти
Автор Повідомлення
sergiyko.5 
Забанено
Забанено


З нами з: 25.02.16
Востаннє: 29.10.20
Повідомлень: 3648

2018-10-05 20:34  
Міа та я / Mia and Me (Сезон 2) (2015) 1080p Ukr/Eng | sub Eng


Міа та я / Mia and Me (Сезон 2) (2015) 1080p Ukr/Eng | sub Eng

Жанр: анімація, пригодницький, сімейний
Країна: Нідерланди, Німеччина, Італія, Канада
Кінокомпанія: Hahn Film AG, Lucky Punch, ZDF, Rainbow S.r.l., March Entertainment
Режисер: Герхард Хан
Актори: Розабел Лауренті Селерз (Міа), Адріан Мур (Вінсент), Сафія Стоуні (Паула), Жозефін Беніні (Віолетта), Ендрю Крейг (Мо), Тайджа Ісен (Юко), Род Вілсон (Рейнор), Лінда Балантайн (Майла), Джонатан Вілсон (Фадл), Елізабет Ханна (Пантея), Норма ДельАгнес (Гаргона)

Сюжет:
12-річна Міа залишилася зовсім одна. Її батьки загадково зникли, залишивши на згадку дочці браслет та книгу про фантастичну країну Центопію. За допомогою цих речей Міа випадково перетворюється на прекрасну фею. Вона потрапляє до чарівної Центопії, де живуть дракони, єдинороги та фавни.Та виявилося, що казкова країна і її жителі – у великій небезпеці. Зла чаклунка Пантеа полює на прекрасних єдинорогів, адже ці створіння можуть дарувати безсмертя. Маленька фея збирає найвідданіших друзів, щоб вберегти Центопію від сил зла.




Тривалість: 1 серія: 23:31 (цілком серій: 26)
Якість:

Відео: кодек: розмір кадру: 1920 х 1080 бітрейт: 6190 кб/с
Аудіо 1: мова: українська переклад: професійний дубльований кодек: 2.0 бітрейт: 192 кб/с Озвучення:
Аудіо 2: мова: англійська переклад: оригінал кодек: 5.1 бітрейт: 384 кб/с
Субтитри: мова: англійська, тип: програмні (м'які), формат: *.srt
Перелік серій
01. The Mysterious Visitor
02. Behind the Curtain
03. The Animal Guardians
04. Dragons in Danger
05. The Ghost of Blackwood Forest
06. The Spell of the Green Fluids
07. Beyond the Wall of Vines
08. A Father's Feather
09. Speaking with Stones
10. Dancing with Stars
11. The Unwanted Roommate
12. That's What Friends are For
13. Return to Panthea's Castle
14. The Whistling Bolobo
15. My Name Is Varia
16. Crossing The Rainbow Bridge
17. Taking Sides
18. A Shower of Pollen
19. The Fiery Flower
20. Journey to the North
21. The Unicorn King
22. The Rainbow Spring
23. Hide and Seek
24. A Sticky Situation
25. The Strongest Team
26. Breaking the Spell
Info
General
Unique ID : 43818835493779095387061244001811938725 (0x20F73363BBD08B039B227032792BBDA5)
Complete name : E:\MULTFILMS\Mia and Me S02 1080p \Mia.and.Me.S02E01.The.Mysterious.Visitor.1080p..Ukr.Eng.
Format :
Format version : Version 4 / Version 2
File size : 1.11 GiB
Duration : 23 min 32 s
Overall bit rate mode : Variable
Overall bit rate : 6 752 kb/s
Movie name : Mia and Me S02 1080p by sergiyko
Encoded date : UTC 2018-10-05 16:39:32
Writing application : v27.0.0 ('Metropolis') 64-bit
Writing library : libebml v1.3.6 + v1.4.9

Video
ID : 1
Format : AVC
Format/Info : Advanced Video Codec
Format profile : [email protected]
Format settings : CABAC / 3 Ref Frames
Format settings, CABAC : Yes
Format settings, ReFrames : 3 frames
Codec ID : V_MPEG4/ISO/AVC
Duration : 23 min 31 s
Bit rate mode : Variable
Bit rate : 6 190 kb/s
Maximum bit rate : 9 285 kb/s
Width : 1 920 pixels
Height : 1 080 pixels
Display aspect ratio : 16:9
Frame rate mode : Constant
Frame rate : 25.000 FPS
Color space : YUV
Chroma subsampling : 4:2:0
Bit depth : 8 bits
Scan type : Progressive
Bits/(Pixel*Frame) : 0.119
Stream size : 1.02 GiB (91%)
Title : S02E01.The.Mysterious.Visitor
Writing library : core 118
Encoding settings : cabac=1 / ref=3 / deblock=1:0:0 / analyse=0x1:0x111 / me=umh / subme=10 / psy=1 / psy_rd=1.00:0.00 / mixed_ref=1 / me_range=24 / chroma_me=1 / trellis=2 / 8x8dct=0 / cqm=0 / deadzone=21,11 / fast_pskip=1 / chroma_qp_offset=-2 / threads=8 / sliced_threads=0 / nr=0 / decimate=1 / interlaced=0 / bluray_compat=0 / constrained_intra=0 / bframes=2 / b_pyramid=0 / b_adapt=2 / b_bias=0 / direct=3 / weightb=1 / open_gop=0 / weightp=2 / keyint=50 / keyint_min=26 / scenecut=0 / intra_refresh=0 / rc_lookahead=0 / rc=2pass / mbtree=1 / bitrate=6190 / ratetol=1.0 / qcomp=0.50 / qpmin=6 / qpmax=51 / qpstep=4 / cplxblur=20.0 / qblur=0.5 / vbv_maxrate=9285 / vbv_bufsize=12380 / nal_hrd=vbr / ip_ratio=1.40 / aq=1:1.00
Language : English
Default : Yes
Forced : No

Audio #1
ID : 2
Format : AC-3
Format/Info : Audio Coding 3
Codec ID : A_AC3
Duration : 23 min 32 s
Bit rate mode : Constant
Bit rate : 192 kb/s
Channel(s) : 2 channels
Channel positions : Front: L R
Sampling rate : 48.0 kHz
Frame rate : 31.250 FPS (1536 SPF)
Bit depth : 16 bits
Compression mode : Lossy
Stream size : 32.3 MiB (3%)
Title : DUB | Піксель
Language : Ukrainian
Service kind : Complete Main
Default : Yes
Forced : Yes

Audio #2
ID : 3
Format : AC-3
Format/Info : Audio Coding 3
Codec ID : A_AC3
Duration : 23 min 32 s
Bit rate mode : Constant
Bit rate : 384 kb/s
Channel(s) : 6 channels
Channel positions : Front: L C R, Side: L R, LFE
Sampling rate : 48.0 kHz
Frame rate : 31.250 FPS (1536 SPF)
Bit depth : 16 bits
Compression mode : Lossy
Stream size : 64.7 MiB (6%)
Title : Original
Language : English
Service kind : Complete Main
Default : No
Forced : No

Text
ID : 4
Format : UTF-8
Codec ID : S_TEXT/UTF8
Codec ID/Info : UTF-8 Plain Text
Duration : 23 min 11 s
Bit rate : 59 b/s
Count of elements : 400
Stream size : 10.1 KiB (0%)
Title : English
Language : English
Default : No
Forced : No
Скріншоти:



Запис : НТН
Синхонізація: sergiyko


Бронзовий реліз (на рейтинг впливає 75% завантаженого)
 Трекер:    Зареєстрований   

Завантажити / скачати мультфільм українською



відео для новачків



 Зареєстрований:   2018-10-05 20:34
 Розмір:   31.68 GB 
 Оцінка мультсеріалу:   9.4/10 (Голосів: 5)
   
Ваш часовий пояс: GMT + 2 Години

Нова тема   Відповісти