Ульзана / Ulzana (1974) Remux 1080i Ukr/Ger

Нові коментарі

Нова тема   Відповісти
Автор Повідомлення
kryk-v.ya. 
VIP


З нами з: 14.02.14
Востаннє: 19.12.18
Повідомлень: 744

2018-10-05 18:37  
Ульзана / Ulzana (1974) Remux 1080i Ukr/Ger

Ульзана / Ulzana (1974) Remux 1080i Ukr/Ger


Жанр: вестерн
Країна: НДР, СРСР, Румунія



Кінокомпанія: Deutsche Film (DEFA), Filmstudio Bucuresti, Mosfilm
Режисер: Ґоттфрід Колдіц
Актори: Ґойко Мітіч, Рената Блюм, Рольф Гоппе та інші

Сюжет:
Кінець сорокових років XIX століття, Аризона. Внаслідок Американо-мексиканської війни США отримали значні території. Частина земель була надана індіанцям-апачам. Індіанці племені Мімбреньйо стали хліборобами, побудували зрошувальну споруду і святкують своє перше свято урожаю. Урожай вродив багатий, і індіанці збираються продати надлишки.


Тривалість: 01:30:46
Якість: Remux 1080i
Відео:
кодек:
розмір кадру: 1920 х 1080
бітрейт: 30 Мб/с

Аудіо # 1:
мова: українська
переклад: двоголосий закадровий
кодек: 2.0
бітрейт: 192 кб/с

Аудіо # 2:
мова: німецька
переклад: оригінал
кодек: 2.0
бітрейт: 384 кб/с
Info
General
Unique ID : 319153191033916024086974475977065876672 (0xF01AAB32EE581DE1C3C99D71CDC1CCC0)
Complete name : E:\Ulzana (1974) Remux 1080p.
Format :
Format version : Version 4 / Version 2
File size : 19.4 GiB
Duration : 1 h 30 min
Overall bit rate mode : Variable
Overall bit rate : 30.6 Mb/s
Encoded date : UTC 2018-10-05 14:56:58
Writing application : v25.0.0 ('Prog Noir') 64-bit
Writing library : libebml v1.3.6 + v1.4.9
Attachments : 0010.jpg

Video
ID : 1
Format : AVC
Format/Info : Advanced Video Codec
Format profile : [email protected]
Format settings : CABAC / 3 Ref Frames
Format settings, CABAC : Yes
Format settings, ReFrames : 3 frames
Codec ID : V_MPEG4/ISO/AVC
Duration : 1 h 30 min
Bit rate mode : Variable
Bit rate : 30.0 Mb/s
Maximum bit rate : 35.0 Mb/s
Width : 1 920 pixels
Height : 1 080 pixels
Display aspect ratio : 16:9
Frame rate mode : Constant
Frame rate : 25.000 FPS
Standard : NTSC
Color space : YUV
Chroma subsampling : 4:2:0
Bit depth : 8 bits
Scan type : MBAFF
Bits/(Pixel*Frame) : 0.579
Stream size : 19.0 GiB (98%)
Default : Yes
Forced : No
Color range : Limited
Color primaries : BT.709
Transfer characteristics : BT.709
Matrix coefficients : BT.709

Audio #1
ID : 2
Format : AC-3
Format/Info : Audio Coding 3
Commercial name : Dolby Digital
Codec ID : A_AC3
Duration : 1 h 30 min
Bit rate mode : Constant
Bit rate : 192 kb/s
Channel(s) : 2 channels
Channel layout : L R
Sampling rate : 48.0 kHz
Frame rate : 31.250 FPS (1536 SPF)
Bit depth : 16 bits
Compression mode : Lossy
Stream size : 125 MiB (1%)
Title : DVO(Ентер-фільм)
Language : Ukrainian
Service kind : Complete Main
Default : Yes
Forced : No

Audio #2
ID : 3
Format : AC-3
Format/Info : Audio Coding 3
Commercial name : Dolby Digital
Codec ID : A_AC3
Duration : 1 h 30 min
Bit rate mode : Constant
Bit rate : 384 kb/s
Channel(s) : 2 channels
Channel layout : L R
Sampling rate : 48.0 kHz
Frame rate : 31.250 FPS (1536 SPF)
Bit depth : 16 bits
Compression mode : Lossy
Stream size : 249 MiB (1%)
Title : Оригінал
Language : German
Service kind : Complete Main
Default : No
Forced : No
Скріншоти





Джерело: &
Особиста оцінка: 9 - давно не бачив настільки якісне кіно

Велика подяка пану krigg070 за запис та синхроніацію.


Золотий реліз (завантажене не впливає на рейтинг)
 Трекер:    Зареєстрований   

Завантажити / скачати фільм українською



відео для новачків



 Зареєстрований:   2018-10-05 18:37
 Розмір:   19.39 GB 
 Оцінка фільму:   9.8/10 (Голосів: 6)
   
Інші релізи
   Ульзана / Ulzana (1974) 720p Ukr/Ger staf777  1 / 0   7.9 GB   2018-10-06 12:15 
   Ульзана / Ульцана / Ulzana (1974) krigg070  1 / 0   1.46 GB   2017-11-05 23:38 
igor911 
Відео Гуртом
Відео Гуртом


З нами з: 18.01.08
Востаннє: 19.12.18
Повідомлень: 11620

2018-10-05 18:56  
kryk-v.ya. написано:
Сюжет:

це сюжет подій, що передують фільму, чи прочитавши можна не дивитись?

staf777 
Попереджень: 1
Попереджень: 1 


З нами з: 16.11.16
Востаннє: 19.12.18
Повідомлень: 1940

2018-10-05 18:57  
Класика - доріжкою не поділитесь може завтра викладу АВЦ
kryk-v.ya. 
VIP


З нами з: 14.02.14
Востаннє: 19.12.18
Повідомлень: 744

2018-10-05 19:05  
igor911
це скоріше опис фільму,мабуть ваша правда прочитавши бага що зрозуміло..

staf777
зараз скину...

igor911 
Відео Гуртом
Відео Гуртом


З нами з: 18.01.08
Востаннє: 19.12.18
Повідомлень: 11620

2018-10-05 19:06  
kryk-v.ya. написано:
прочитавши бага що зрозуміло..

тоді треба виправити, щоб було без спойлерів.

11FrYkT 
Модератор відео


З нами з: 20.02.11
Востаннє: 19.12.18
Повідомлень: 5283

2018-10-08 08:25  
kryk-v.ya. написано:
розмір кадру: 1920 х 1080i

не ставте і або р це розмір кадру а не якість

kryk-v.ya. 
VIP


З нами з: 14.02.14
Востаннє: 19.12.18
Повідомлень: 744

2018-10-08 15:04  
11FrYkT
Добре...

Oleksa9 
VIP


З нами з: 17.05.12
Востаннє: 19.12.18
Повідомлень: 323

2018-12-13 05:45  
Навіщьо, дещьо
потовстішати -> погладшати
Чюдове, чюєте, вчясно, чьоботи.....

Ваш часовий пояс: GMT + 2 Години

Нова тема   Відповісти