1+1 (Недоторканні) / Intouchables (2011) 720p-mini

Нові коментарі

Нова тема   Відповісти
Автор Повідомлення
Drool 
VIP


З нами з: 17.04.10
Востаннє: 13.08.20
Повідомлень: 1544

2018-10-05 16:33  
1+1 / Недоторканні / Intouchables (2011) 720p-mini

1+1 (Недоторканні) / Intouchables (2011) 720p-mini


Жанр: біографічний, комедія, драма
Країна: Франція

Top 250 #37
Підлітки до 16 років допускаються до фільму тільки у супроводі одного з батьків, або законного представника
Обмеження - до 16 років потрібний супровід батька або дорослого опікуна (вік може змінюватися в деяких регіонах). Цей рейтинг показує, що оціночна комісія вирішила, що деякий матеріал цього фільму призначається для дорослих. Батьки повинні більше дізнатися про фільм перш, ніж узяти на його перегляд дітей. Рейтинг R також може бути призначений унаслідок використовуваної у фільмі мови, теми, насильства, сексу або зображення вживання наркотиків.
Кінокомпанія: Quad Productions, Chaocorp, Gaumont
Режисер: Олів’є Накаче, Ерік Толедано
Актори: Франсуа Клюзе, Омар Сай, Анн Ле Ні, Одрі Флеро, Жозефін де Мо, Клотільд Молле, Альба Гайя Крагеде Беллуджі, Сіріл Менді, Салімата Камате, Абса Діату Тоур та ін.

Сюжет:
Постраждавши в результаті нещасного випадку, багатий аристократ Філіп наймає в помічники людину, яка найменше підходить для цієї роботи, - молодого жителя передмістя Дрісса, щойно звільненого з в'язниці. Незважаючи на те, що Філіп прикутий до інвалідного крісла, Дріссу вдається привнести в розмірене життя аристократа дух пригод.


Тривалість: 01:52:02
Якість: 720p-mini
Відео:
кодек:
розмір кадру: 1280x694
бітрейт: 3383 кб/с

Аудіо:
мова: українська
переклад: професійний дубльований
кодек: 2.0
бітрейт: 192 кб/с
Info
Код:
General
Unique ID                                : 311258875169706835389516605493078609694 (0xEA2A4760642479D994CDC10FE0CB4F1E)
Complete name                            : /mnt/disk/Video/Films/Intouchables.2011.Ukr.Dub-2.0.720p-mini.UAGet.
Format                                   :
Format version                           : Version 4 / Version 2
File size                                : 2.80 GiB
Duration                                 : 1 h 52 min
Overall bit rate                         : 3 577 kb/s
Movie name                               : 1+1 / Недоторканні / Intouchables (2011) 720p-mini -=UAGet=-
Encoded date                             : UTC 2018-10-05 13:06:30
Writing application                      : v8.2.0 ('World of Adventure') 64bit
Writing library                          : libebml v1.3.1 + v1.4.2
Cover                                    : Yes
Attachments                              : cover.jpg

Video
ID                                       : 1
Format                                   : AVC
Format/Info                              : Advanced Video Codec
Format profile                           : [email protected]
Format settings                          : CABAC / 8 Ref Frames
Format settings, CABAC                   : Yes
Format settings, RefFrames               : 8 frames
Codec ID                                 : V_MPEG4/ISO/AVC
Duration                                 : 1 h 52 min
Bit rate                                 : 3 383 kb/s
Width                                    : 1 280 pixels
Height                                   : 694 pixels
Display aspect ratio                     : 1.85:1
Frame rate mode                          : Constant
Frame rate                               : 24.000 FPS
Color space                              : YUV
Chroma subsampling                       : 4:2:0
Bit depth                                : 8 bits
Scan type                                : Progressive
Bits/(Pixel*Frame)                       : 0.159
Stream size                              : 2.65 GiB (95%)
Title                                    : 1+1 / Недоторканні / Intouchables (2011) 720p-mini -=UAGet=-
Writing library                          : core 155 r2901 7d0ff22
Encoding settings                        : cabac=1 / ref=9 / deblock=1:-3:-3 / analyse=0x3:0x133 / me=umh / subme=11 / psy=1 / psy_rd=1.00:1.00 / mixed_ref=1 / me_range=64 / chroma_me=1 / trellis=2 / 8x8dct=1 / cqm=0 / deadzone=21,11 / fast_pskip=0 / chroma_qp_offset=-4 / threads=90 / lookahead_threads=5 / sliced_threads=0 / nr=0 / decimate=1 / interlaced=0 / bluray_compat=0 / constrained_intra=0 / bframes=12 / b_pyramid=1 / b_adapt=2 / b_bias=0 / direct=3 / weightb=1 / open_gop=0 / weightp=2 / keyint=240 / keyint_min=24 / scenecut=40 / intra_refresh=0 / rc_lookahead=60 / rc=2pass / mbtree=0 / bitrate=3383 / ratetol=1.0 / qcomp=1.00 / qpmin=0 / qpmax=69 / qpstep=4 / cplxblur=20.0 / qblur=0.5 / vbv_maxrate=62500 / vbv_bufsize=78125 / nal_hrd=none / filler=0 / ip_ratio=1.40 / pb_ratio=1.30 / aq=3:0.60
Default                                  : Yes
Forced                                   : Yes
Color range                              : Limited
Color primaries                          : BT.709
Transfer characteristics                 : BT.709
Matrix coefficients                      : BT.709

Audio
ID                                       : 2
Format                                   : AC-3
Format/Info                              : Audio Coding 3
Format settings, Endianness              : Big
Codec ID                                 : A_AC3
Duration                                 : 1 h 52 min
Bit rate mode                            : Constant
Bit rate                                 : 192 kb/s
Channel(s)                               : 2 channels
Channel positions                        : Front: L R
Sampling rate                            : 48.0 kHz
Frame rate                               : 31.250 FPS (1536 SPF)
Bit depth                                : 16 bits
Compression mode                         : Lossy
Delay relative to video                  : -21 ms
Stream size                              : 154 MiB (5%)
Title                                    : 2.0 [192 Kbps] — професійний дубльований | запис з 1+1
Language                                 : Ukrainian
Service kind                             : Complete Main
Default                                  : Yes
Forced                                   : Yes
Скріншоти
Джерело звуку:
Реліз від:
Особиста оцінка: 9 - давно не бачив настільки якісне кіно


 Трекер:    Зареєстрований   

Завантажити / скачати фільм українською



відео для новачків



 Зареєстрований:   2018-10-05 16:33
 Розмір:   2.8 GB 
 Оцінка фільму:   9.8/10 (Голосів: 24)
   
Ваш часовий пояс: GMT + 2 Години

Нова тема   Відповісти