Формула 1. Сезон 2018. Етап 17. Гран-Прі Японії. 1-3 практика (05.10.2018) IPTV 1080p

Нові коментарі

Нова тема   Відповісти
Останній раз роздавалося sergiyko.5 (2019-03-03)
Автор Повідомлення
sergiyko.5 
VIP


З нами з: 25.02.16
Востаннє: 21.10.20
Повідомлень: 3588

2018-10-05 10:42  
Формула 1. Сезон 2018. Етап 17. Гран-Прі Японії. 1-3 практика (05.10.2018) IPTV 1080p


Формула 1. Сезон 2018. Етап 17. Гран-Прі Японії. 1-3 практика (05.10.2018) IPTV 1080p

Жанр: Перегони Формула 1
Країна: Японія
Телеканал: Перший автомобільний
Коментатор: Павло Воробйов

Опис:
Вільна практика сімнадцятого етапу Гран-Прі Японії 2018 року відбулась 5 жовтня 2018 року о 4 та 8 годині за київським часом та 6 жовтня о 6 годині


Тривалість: 01:38:36 + 01:38:46 + 01:06:03
Якість: IPTV

Відео:кодек: розмір кадру: 1920 х 1080 бітрейт: 6000 кб/с
Аудіо: мова: українська кодек: 2.0 бітрейт: 128 кб/с
Про файл:
General
Unique ID : 306878918066784050603632283386119704505 (0xE6DEBAD1972CD2873664C712E6D7CFB9)
Complete name : D:\Torrents\SPORT\Formula 1\F1.2018.17.Japan.Practice.1080i.HDTV\F1.2018.17.Japan.Practice.1.1080p.IPTV.
Format :
Format version : Version 4 / Version 2
File size : 4.22 GiB
Duration : 1 h 38 min
Overall bit rate : 6 127 kb/s
Encoded date : UTC 2018-10-05 07:29:42
Writing application : v27.0.0 ('Metropolis') 64-bit
Writing library : libebml v1.3.6 + v1.4.9

Video
ID : 1
Format : AVC
Format/Info : Advanced Video Codec
Format profile : [email protected]
Format settings : CABAC / 2 Ref Frames
Format settings, CABAC : Yes
Format settings, ReFrames : 2 frames
Codec ID : V_MPEG4/ISO/AVC
Duration : 1 h 38 min
Bit rate mode : Constant
Bit rate : 6 000 kb/s
Width : 1 920 pixels
Height : 1 080 pixels
Display aspect ratio : 16:9
Frame rate mode : Constant
Frame rate : 50.000 FPS
Color space : YUV
Chroma subsampling : 4:2:0
Bit depth : 8 bits
Scan type : Progressive
Bits/(Pixel*Frame) : 0.058
Stream size : 4.13 GiB (98%)
Language : English
Default : Yes
Forced : No

Audio
ID : 2
Format :
Format/Info : Advanced Audio Codec
Format profile : LC
Codec ID : A_AAC-2
Duration : 1 h 38 min
Bit rate : 125 kb/s
Channel(s) : 2 channels
Channel positions : Front: L R
Sampling rate : 48.0 kHz
Frame rate : 46.875 FPS (1024 SPF)
Compression mode : Lossy
Stream size : 88.4 MiB (2%)
Title : Павло Воробйов
Language : Ukrainian
Default : Yes
Forced : No
Скріншоти:


Автор запису: sergiyko


Бронзовий реліз (на рейтинг впливає 75% завантаженого)
 Трекер:    Зареєстрований   

Завантажити / скачати торрент



відео для новачків



 Зареєстрований:   2018-10-06 09:13
 Розмір:   11.27 GB 
 Оцінка:   10/10 (Голосів: 4)
   
sergiyko.5 
VIP


З нами з: 25.02.16
Востаннє: 21.10.20
Повідомлень: 3588

2018-10-06 09:14  
Додав третю практику.
legioneRRR 
Частий відвідувач


З нами з: 02.01.15
Востаннє: 21.10.20
Повідомлень: 33

2018-10-06 12:09  
Дякую!
legioneRRR 
Частий відвідувач


З нами з: 02.01.15
Востаннє: 21.10.20
Повідомлень: 33

2018-10-06 21:22  
Важкувато далися Воробйову вранішні практики Wink (1)
armogun 
Попереджень: 1
Попереджень: 1 


З нами з: 04.05.13
Востаннє: 17.10.20
Повідомлень: 699

2018-10-06 22:49  
Які там зараз правила ? на практику і кваліфікацію дається обмежена к-сть комплектів шин ? Яке співпадіння . Вирішив дойти F1 13 " давним давно встановив і теж зараз на Сузуці Етап 16
legioneRRR 
Частий відвідувач


З нами з: 02.01.15
Востаннє: 21.10.20
Повідомлень: 33

2018-10-07 10:06  
armogun
Всього 13 комплектів. В кожній з практик здають по 2 комплекти, плюс один після кваліфікації.

Ваш часовий пояс: GMT + 2 Години

Нова тема   Відповісти