До зуcтрічі з тобою / Me Before You (2016) 1080p H.265 Ukr/Eng | Sub Eng

Нові коментарі

Нова тема   Відповісти
Автор Повідомлення
-Star-Lord- 
Поважний учасник


З нами з: 09.08.18
Востаннє: 21.10.18
Повідомлень: 211

2018-10-05 10:41  
До зуcтрічі з тобою / Me Before You (2016) 1080p H.265 Ukr/Eng | Sub Eng

До зуcтрічі з тобою / Me Before You (2016) 1080p H.265 Ukr/Eng | Sub Eng


Жанр: драма, мелодрама
Країна: США



Кінокомпанія: Metro-Goldwyn-Mayer (MGM), New Line Cinema, Sunswept Entertainment
Режисер: Теа Шеррок
Актори: Емілія Кларк, Сем Клафлін, Дженна Коулман, Меттью Льюіс, Чарльз Денс, Джоанна Ламлі, Джанет МакТір, Ванесса Кірбі, Брендан Койл, Стівен Пікок

Сюжет:
У чарівному невеликому містечку сільської Англії живе Луїза "Лу" Кларк, молода дівчина 26-ти років. У неї немає великих амбіцій, головне - працювати в улюбленому кафе і зводити кінці з кінцями. Молодий успішний банкір Вілл Трейнор був сповнений оптимізму і сміливості, поки не потрапив у жахливу аварію. Інцидент привів до паралізованості і відняв у хлопця бажання радіти життю. Уілл став циніком, тінню самого себе. В інших умовах ці двоє навряд чи б перетнулися, але доля розпорядилася інакше. Лу наймається помічницею до Трейнора і скоро її метою стає повернення смаку до життя молодого банкіра. Поступово у їх професійних відносинах з'являється щось нове - кохання.


Тривалість: 01:50:14
Якість:
Відео:
кодек: H.265 (HEVC)
розмір кадру: 1920 х 800
бітрейт: 4 511 кб/с
бітова глибина: 10 біт
Увага! Перед завантаженням переконайтесь, що ваш пристрій відтворення (та/або ПЗ) підтримує H.265 (HEVC)

Аудіо # 1:
мова: українська
переклад: професійний дубльований
кодек: 5.1
бітрейт: 384 кб/с

Аудіо # 2:
мова: англійська
переклад: оригінал
кодек: 5.1
бітрейт: 448 кб/с

Субтитри # 1:
мова: українська
тип: програмні (м'які)
формат: *.srt

Субтитри # 2-3:
мова: англійська
тип: програмні (м'які)
формат: *.srt


Info
Код:
General
Unique ID                                : 12174384105993869853464633596252739667 (0x928B37AA96BDA7CEDD80EB965AF5853)
Complete name                            : F:\Video\Me Before You (2016) 1080p H.265 [UKR_ENG].
Format                                   :
Format version                           : Version 4 / Version 2
File size                                : 4.12 GiB
Duration                                 : 1 h 50 min
Overall bit rate                         : 5 346 kb/s
Movie name                               : Me Before You (2016)
Encoded date                             : UTC 2018-10-05 07:30:28
Writing application                      : v20.0.0 ('I Am The Sun') 32-bit
Writing library                          : libebml v1.3.5 + v1.4.8
Cover                                    : Yes
Attachments                              : Cover.jpg

Video
ID                                       : 1
Format                                   : HEVC
Format/Info                              : High Efficiency Video Coding
Format profile                           : Main [email protected]@Main
Codec ID                                 : V_MPEGH/ISO/HEVC
Duration                                 : 1 h 50 min
Bit rate                                 : 4 511 kb/s
Width                                    : 1 920 pixels
Height                                   : 800 pixels
Display aspect ratio                     : 2.40:1
Frame rate mode                          : Constant
Frame rate                               : 23.976 (24000/1001) FPS
Color space                              : YUV
Chroma subsampling                       : 4:2:0
Bit depth                                : 10 bits
Bits/(Pixel*Frame)                       : 0.123
Stream size                              : 3.47 GiB (84%)
Language                                 : English
Default                                  : Yes
Forced                                   : No

Audio #1
ID                                       : 2
Format                                   : AC-3
Format/Info                              : Audio Coding 3
Codec ID                                 : A_AC3
Duration                                 : 1 h 50 min
Bit rate mode                            : Constant
Bit rate                                 : 384 kb/s
Channel(s)                               : 6 channels
Channel positions                        : Front: L C R, Side: L R, LFE
Sampling rate                            : 48.0 kHz
Frame rate                               : 31.250 FPS (1536 SPF)
Bit depth                                : 16 bits
Compression mode                         : Lossy
Stream size                              : 303 MiB (7%)
Title                                    : 5.1 @ 384 kbps -  iTunes
Language                                 : Ukrainian
Service kind                             : Complete Main
Default                                  : Yes
Forced                                   : Yes

Audio #2
ID                                       : 3
Format                                   : AC-3
Format/Info                              : Audio Coding 3
Codec ID                                 : A_AC3
Duration                                 : 1 h 50 min
Bit rate mode                            : Constant
Bit rate                                 : 448 kb/s
Channel(s)                               : 6 channels
Channel positions                        : Front: L C R, Side: L R, LFE
Sampling rate                            : 48.0 kHz
Frame rate                               : 31.250 FPS (1536 SPF)
Bit depth                                : 16 bits
Compression mode                         : Lossy
Stream size                              : 353 MiB (8%)
Title                                    : 5.1 @ 448 kbps
Language                                 : English
Service kind                             : Complete Main
Default                                  : No
Forced                                   : No

Text #1
ID                                       : 4
Format                                   : UTF-8
Codec ID                                 : S_TEXT/UTF8
Codec ID/Info                            : UTF-8 Plain Text
Duration                                 : 1 h 20 min
Bit rate                                 : 2 b/s
Count of elements                        : 29
Stream size                              : 1.26 KiB (0%)
Title                                    : Forced
Language                                 : Ukrainian
Default                                  : Yes
Forced                                   : Yes

Text #2
ID                                       : 5
Format                                   : UTF-8
Codec ID                                 : S_TEXT/UTF8
Codec ID/Info                            : UTF-8 Plain Text
Duration                                 : 1 h 45 min
Bit rate                                 : 63 b/s
Count of elements                        : 1640
Stream size                              : 49.0 KiB (0%)
Title                                    : Full
Language                                 : English
Default                                  : No
Forced                                   : No

Text #3
ID                                       : 6
Format                                   : UTF-8
Codec ID                                 : S_TEXT/UTF8
Codec ID/Info                            : UTF-8 Plain Text
Duration                                 : 1 h 45 min
Bit rate                                 : 68 b/s
Count of elements                        : 1746
Stream size                              : 52.5 KiB (0%)
Title                                    : SDH
Language                                 : English
Default                                  : No
Forced                                   : No

Menu
00:00:00.000                             : en:Chapter 01
00:05:23.281                             : en:Chapter 02
00:10:12.987                             : en:Chapter 03
00:15:53.202                             : en:Chapter 04
00:20:13.546                             : en:Chapter 05
00:23:41.462                             : en:Chapter 06
00:28:51.229                             : en:Chapter 07
00:33:30.383                             : en:Chapter 08
00:39:37.208                             : en:Chapter 09
00:45:05.286                             : en:Chapter 10
00:49:43.105                             : en:Chapter 11
00:53:26.954                             : en:Chapter 12
00:58:40.392                             : en:Chapter 13
01:02:42.467                             : en:Chapter 14
01:08:22.598                             : en:Chapter 15
01:12:51.075                             : en:Chapter 16
01:17:35.401                             : en:Chapter 17
01:20:58.270                             : en:Chapter 18
01:26:11.500                             : en:Chapter 19
01:31:42.247                             : en:Chapter 20
Скріншоти




Джерело:
Особиста оцінка: 0 - не дивився


 Трекер:    Зареєстрований   

Завантажити / скачати фільм українською



відео для новачків



 Зареєстрований:   2018-10-05 10:41
 Розмір:   4.12 GB 
 Оцінка фільму:   6.7/10 (Голосів: 3)
   
Інші релізи
Ваш часовий пояс: GMT + 2 Години

Нова тема   Відповісти