27 весіль / 27 Dresses (2008) AVC 2xUkr/Eng | Sub Eng

Нові коментарі

Нова тема   Відповісти
Автор Повідомлення
staf777 
Відео Гуртом - підтримка та поширення
Відео Гуртом - підтримка та поширення


З нами з: 16.11.16
Востаннє: 20.04.19
Повідомлень: 2270

2018-10-05 08:53  
27 весіль / 27 Dresses (2008) AVC 2xUkr/Eng | Sub Eng

27 весіль / 27 Dresses (2008) AVC 2xUkr/Eng | Sub Eng


Жанр: мелодрама, комедія
Країна: США



Кінокомпанія: 20th Century Fox, Spyglass Entertainment
Режисер: Енн Флетчер
Актори: Кетрін Хейгл, Джеймс Марсден, Едвард Бернс, Малін Акерман, Джуді Грір, Браян Кервін

Сюжет:
Побувавши, як подружка нареченої на 27 весіллях, головна героїня раптом розуміє, що пора б зупинитися і задуматися вже і про власне заміжжя, але на останок відгуляти весілля своєї сестри. Проте, з'ясовується, що та зібралася заміж за людину, на яку "професійна подружка" якраз тільки встигла покласти око. Назріває конфлікт...


Тривалість: 01:50:48
Якість: AVC
Відео:
кодек:
розмір кадру: 1024x426
бітрейт: 2195 кб/с

Аудіо # 1:
мова: українська
переклад: професійний дубльований
кодек: 5.1
бітрейт: 384 кб/с

Аудіо # 2:
мова: українська
переклад: багатоголосий закадровий
кодек: 2.0
бітрейт: 192 кб/с

Аудіо # 3:
мова: англійська
переклад: оригінал
кодек: 5.1
бітрейт: 384 кб/с

Джерело озвучення:
+

Субтитри:
мова: англійська
тип: програмні (м'які)
формат: *.srt
Скріншоти





MI
General
Unique ID : 338310716988652533833850929107706648967 (0xFE84462731B796D54F4EEBBC75691987)
Complete name : N:\27 Dresses (2008) AVC [2xUKR_ENG] [Hurtom].
Format :
Format version : Version 4 / Version 2
File size : 2.44 GiB
Duration : 1 h 50 min
Overall bit rate : 3 157 kb/s
Movie name : 27 Dresses (2008) AVC [2xUKR_ENG] [Hurtom]
Encoded date : UTC 2018-10-07 17:24:40
Writing application : v24.0.0 ('Beyond The Pale') 64-bit
Writing library : libebml v1.3.6 + v1.4.9
Cover : Yes
Attachments : cover.jpg

Video
ID : 1
Format : AVC
Format/Info : Advanced Video Codec
Format profile : [email protected]
Format settings : CABAC / 9 Ref Frames
Format settings, CABAC : Yes
Format settings, ReFrames : 9 frames
Codec ID : V_MPEG4/ISO/AVC
Duration : 1 h 50 min
Bit rate : 2 195 kb/s
Width : 1 024 pixels
Height : 426 pixels
Display aspect ratio : 2.40:1
Frame rate mode : Constant
Frame rate : 23.976 (24000/1001) FPS
Color space : YUV
Chroma subsampling : 4:2:0
Bit depth : 8 bits
Scan type : Progressive
Bits/(Pixel*Frame) : 0.210
Stream size : 1.70 GiB (70%)
Writing library : core 130 r2273 b3065e6
Encoding settings : cabac=1 / ref=9 / deblock=1:-3:-3 / analyse=0x3:0x113 / me=umh / subme=11 / psy=1 / psy_rd=1.00:0.20 / mixed_ref=1 / me_range=32 / chroma_me=1 / trellis=2 / 8x8dct=1 / cqm=0 / deadzone=21,11 / fast_pskip=0 / chroma_qp_offset=-3 / threads=4 / lookahead_threads=1 / sliced_threads=0 / nr=0 / decimate=0 / interlaced=0 / bluray_compat=0 / constrained_intra=0 / bframes=8 / b_pyramid=2 / b_adapt=2 / b_bias=0 / direct=3 / weightb=1 / open_gop=0 / weightp=2 / keyint=240 / keyint_min=23 / scenecut=40 / intra_refresh=0 / rc_lookahead=40 / rc=2pass / mbtree=0 / bitrate=2195 / ratetol=1.0 / qcomp=0.60 / qpmin=0 / qpmax=69 / qpstep=4 / cplxblur=20.0 / qblur=0.5 / vbv_maxrate=50000 / vbv_bufsize=50000 / nal_hrd=none / ip_ratio=1.40 / pb_ratio=1.30 / aq=1:1.00
Language : English
Default : Yes
Forced : No

Audio #1
ID : 2
Format : AC-3
Format/Info : Audio Coding 3
Codec ID : A_AC3
Duration : 1 h 50 min
Bit rate mode : Constant
Bit rate : 384 kb/s
Channel(s) : 6 channels
Channel positions : Front: L C R, Side: L R, LFE
Sampling rate : 48.0 kHz
Frame rate : 31.250 FPS (1536 SPF)
Bit depth : 16 bits
Compression mode : Lossy
Stream size : 304 MiB (12%)
Title : [UA-DUB]
Language : Ukrainian
Service kind : Complete Main
Default : Yes
Forced : Yes

Audio #2
ID : 3
Format : AC-3
Format/Info : Audio Coding 3
Codec ID : A_AC3
Duration : 1 h 50 min
Bit rate mode : Constant
Bit rate : 192 kb/s
Channel(s) : 2 channels
Channel positions : Front: L R
Sampling rate : 48.0 kHz
Frame rate : 31.250 FPS (1536 SPF)
Bit depth : 16 bits
Compression mode : Lossy
Stream size : 152 MiB (6%)
Title : [UA-MVO]
Language : Ukrainian
Service kind : Complete Main
Default : No
Forced : No

Audio #3
ID : 4
Format : AC-3
Format/Info : Audio Coding 3
Codec ID : A_AC3
Duration : 1 h 50 min
Bit rate mode : Constant
Bit rate : 384 kb/s
Channel(s) : 6 channels
Channel positions : Front: L C R, Side: L R, LFE
Sampling rate : 48.0 kHz
Frame rate : 31.250 FPS (1536 SPF)
Bit depth : 16 bits
Compression mode : Lossy
Stream size : 304 MiB (12%)
Language : English
Service kind : Complete Main
Default : No
Forced : No

Text
ID : 5
Format : UTF-8
Codec ID : S_TEXT/UTF8
Codec ID/Info : UTF-8 Plain Text
Duration : 1 h 42 min
Bit rate : 75 b/s
Count of elements : 1292
Stream size : 56.7 KiB (0%)
Language : English
Default : No
Forced : No

Menu
00:00:00.000 : :Main Titles/Life Purpose
00:03:02.599 : :Double-Booked
00:08:26.797 : :Mr. Cynical
00:12:41.218 : :Great Story
00:16:14.890 : :Reality Check
00:19:16.780 : :Kid Sister
00:27:26.770 : :Waiting
00:30:40.213 : :Call Me
00:33:34.595 : :Compatibility
00:39:26.280 : :Unwilling Witness
00:42:50.317 : :Just Say No
00:44:14.568 : :Picture Perfect
00:47:51.994 : :#1 Fan
00:50:13.260 : :27 Dresses
00:57:00.208 : :Bridal Registry
01:00:05.310 : :Love Triangle
01:05:31.010 : :Bennie and the Vets
01:10:56.710 : :You're That Girl!
01:16:12.234 : :The Final Straw
01:18:58.817 : :The Perfect Couple
01:25:19.739 : :You Deserve More
01:28:43.401 : :Different Perspectives
01:32:44.392 : :You're the One
01:39:53.946 : :That Look
За першу доріжку дякую пану BASTERD-94
За запис з ТЕТ дякую пану xSlim та пану Arsenfpu за синхронізацію доріжки
Джерело: &
Особиста оцінка: 8 - мені сподобалося
27 весіль / 27 Dresses (2008) AVC 2xUkr/Eng | Sub Eng

27 весіль / 27 Dresses (2008) AVC 2xUkr/Eng | Sub Eng


 Трекер:    Зареєстрований   

Завантажити / скачати фільм українською



відео для новачків



 Зареєстрований:   2018-10-07 20:44
 Розмір:   2.44 GB 
 Оцінка фільму:   8.6/10 (Голосів: 10)
   
Інші релізи
   27 весіль / 27 Dresses (2008) 1080p 2xUkr/Eng | Sub Eng staf777  0 / 0   7.41 GB   2018-10-08 19:57 
   27 весіль / 27 Dresses (2008) 2xUkr/Eng Arsenfpu  3 / 0   2.19 GB   2016-11-19 20:46 
   27 весіль / 27 Dresses (2008) 720p Ukr/Eng | Sub Eng Mr Yuran  2 / 0   3.52 GB   2013-10-30 22:59 
   27 весіль / 27 Dresses (2008) Ukr/Eng BASTERD-94  2 / 0   2.18 GB   2012-08-15 12:01 
bot 
робот


З нами з: 30.09.07
Востаннє: 26.05.05
Повідомлень: 21218

2018-10-05 08:54  
Тему перенесено з Фільми до форуму Анонси релізів


staf777

bot 
робот


З нами з: 30.09.07
Востаннє: 26.05.05
Повідомлень: 21218

2018-10-07 20:44  
Тему перенесено з Анонси релізів до форуму Фільми


staf777

Ваш часовий пояс: GMT + 2 Години

Нова тема   Відповісти