Глобальне вторгнення: Битва Лос-Анджелес / Battle: Los Angeles (2011) AVC Ukr/Eng | Sub Eng

Нові коментарі

Нова тема   Відповісти
Автор Повідомлення
staf777 
Відео Гуртом - підтримка та поширення
Відео Гуртом - підтримка та поширення


З нами з: 16.11.16
Востаннє: 25.05.19
Повідомлень: 2382

2018-10-04 22:35  
Глобальне вторгнення: Битва Лос-Анджелес / Battle: Los Angeles (2011) AVC Ukr/Eng | Sub Eng

Глобальне вторгнення: Битва Лос-Анджелес / Battle: Los Angeles (2011) AVC Ukr/Eng | Sub Eng


Жанр: екшн, фантастика, триллер
Країна: США

Кінокомпанія: Columbia Pictures, Relativity Media, Original Film, Legion Entertainment
Режисер: Джонатан Лібесман
Актори: Аарон Екхарт, Рамон Родрігез, Корі Хардрікт, Ноель Фішер, Мішель Родрігез

Сюжет:
Людство згуртовує спільний ворог, це стало очевидним, коли невідомі інопланетні загарбники, налаштовані лише на знищення, почали свій наступ, до якого готувалися багато років. На узбережжі міста Ангелів почався бій, перемога у якому - це вирок для життя кожного на планеті, тому про примирення не може бути й мови. Всі сили, уся техніка, уся людська сміливість та розум повинні працювати на повну, щоб зупинити винищувача.


Тривалість: 01:56:10
Якість: AVC
Відео:
кодек:
розмір кадру: 1024x426
бітрейт: 2735 кб/с

Аудіо # 1:
мова: українська
переклад: професійний дубльований
кодек: 5.1
бітрейт: 448 кб/с

Аудіо # 2:
мова: англійська
переклад: оригінал
кодек: 5.1
бітрейт: 384 кб/с

Джерело озвучення:


Субтитри:
мова: англійська
тип: програмні (м'які)
формат: *.srt
Скріншоти




MI
General
Unique ID : 127069963492965824062678347672821301019 (0x5F98C8E6D6E255A1C6BAE9A2EAF1FF1B)
Complete name : N:\Battle Los Angeles (2011) AVC [UKR_ENG] [Hurtom].
Format :
Format version : Version 4 / Version 2
File size : 2.90 GiB
Duration : 1 h 56 min
Overall bit rate : 3 569 kb/s
Movie name : Battle: Los Angeles (2011) AVC [UKR_ENG] [Hurtom]
Encoded date : UTC 2018-10-05 19:34:17
Writing application : v24.0.0 ('Beyond The Pale') 64-bit
Writing library : libebml v1.3.6 + v1.4.9
Cover : Yes
Attachments : cover.jpg

Video
ID : 1
Format : AVC
Format/Info : Advanced Video Codec
Format profile : [email protected]
Format settings : CABAC / 8 Ref Frames
Format settings, CABAC : Yes
Format settings, ReFrames : 8 frames
Codec ID : V_MPEG4/ISO/AVC
Duration : 1 h 56 min
Bit rate : 2 735 kb/s
Width : 1 024 pixels
Height : 426 pixels
Display aspect ratio : 2.40:1
Original display aspect rat : 2.40:1
Frame rate mode : Constant
Frame rate : 23.976 (24000/1001) FPS
Color space : YUV
Chroma subsampling : 4:2:0
Bit depth : 8 bits
Scan type : Progressive
Bits/(Pixel*Frame) : 0.261
Stream size : 2.22 GiB (77%)
Writing library : core 115 r1995 c1e60b9
Encoding settings : cabac=1 / ref=8 / deblock=1:-3:-2 / analyse=0x3:0x133 / me=umh / subme=10 / psy=1 / psy_rd=1.00:0.00 / mixed_ref=1 / me_range=32 / chroma_me=1 / trellis=2 / 8x8dct=1 / cqm=0 / deadzone=21,11 / fast_pskip=0 / chroma_qp_offset=3 / threads=3 / sliced_threads=0 / nr=0 / decimate=1 / interlaced=0 / bluray_compat=0 / constrained_intra=0 / bframes=7 / b_pyramid=2 / b_adapt=2 / b_bias=0 / direct=1 / weightb=1 / open_gop=0 / weightp=2 / keyint=250 / keyint_min=23 / scenecut=40 / intra_refresh=0 / rc=2pass / mbtree=0 / bitrate=2735 / ratetol=1.0 / qcomp=0.60 / qpmin=0 / qpmax=69 / qpstep=4 / cplxblur=20.0 / qblur=0.5 / ip_ratio=1.40 / pb_ratio=1.30 / aq=1:1.00
Language : English
Default : Yes
Forced : No

Audio #1
ID : 2
Format : AC-3
Format/Info : Audio Coding 3
Codec ID : A_AC3
Duration : 1 h 56 min
Bit rate mode : Constant
Bit rate : 448 kb/s
Channel(s) : 6 channels
Channel positions : Front: L C R, Side: L R, LFE
Sampling rate : 48.0 kHz
Frame rate : 31.250 FPS (1536 SPF)
Bit depth : 16 bits
Compression mode : Lossy
Stream size : 372 MiB (13%)
Title : Ukrainian
Language : Ukrainian
Service kind : Complete Main
Default : Yes
Forced : Yes

Audio #2
ID : 3
Format : AC-3
Format/Info : Audio Coding 3
Codec ID : A_AC3
Duration : 1 h 56 min
Bit rate mode : Constant
Bit rate : 384 kb/s
Channel(s) : 6 channels
Channel positions : Front: L C R, Side: L R, LFE
Sampling rate : 48.0 kHz
Frame rate : 31.250 FPS (1536 SPF)
Bit depth : 16 bits
Compression mode : Lossy
Stream size : 319 MiB (11%)
Language : English
Service kind : Complete Main
Default : No
Forced : No

Text
ID : 4
Format : UTF-8
Codec ID : S_TEXT/UTF8
Codec ID/Info : UTF-8 Plain Text
Duration : 1 h 50 min
Bit rate : 66 b/s
Count of elements : 1484
Stream size : 54.4 KiB (0%)
Language : English
Default : No
Forced : No

Menu
00:00:00.000 : en:00:00:00.000
00:01:08.694 : en:00:01:08.694
00:02:11.757 : en:00:02:11.757
00:03:36.675 : en:00:03:36.675
00:06:16.793 : en:00:06:16.793
00:09:50.673 : en:00:09:50.673
00:13:03.449 : en:00:13:03.449
00:16:14.807 : en:00:16:14.807
00:19:34.173 : en:00:19:34.173
00:21:29.288 : en:00:21:29.288
00:24:50.739 : en:00:24:50.739
00:28:04.558 : en:00:28:04.558
00:30:38.587 : en:00:30:38.587
00:32:35.495 : en:00:32:35.495
00:37:37.714 : en:00:37:37.714
00:43:29.857 : en:00:43:29.857
00:47:09.660 : en:00:47:09.660
00:47:50.493 : en:00:47:50.493
00:49:44.899 : en:00:49:44.899
00:53:46.265 : en:00:53:46.265
00:55:32.162 : en:00:55:32.162
00:56:28.176 : en:00:56:28.176
00:58:41.852 : en:00:58:41.852
01:02:13.146 : en:01:02:13.146
01:04:50.136 : en:01:04:50.136
01:07:53.361 : en:01:07:53.361
01:10:11.541 : en:01:10:11.541
01:13:26.152 : en:01:13:26.152
01:15:13.467 : en:01:15:13.467
01:15:49.211 : en:01:15:49.211
01:17:44.618 : en:01:17:44.618
01:20:46.925 : en:01:20:46.925
01:23:37.679 : en:01:23:37.679
01:26:54.960 : en:01:26:54.960
01:33:49.165 : en:01:33:49.165
01:39:43.311 : en:01:39:43.311
01:44:44.528 : en:01:44:44.528
Джерело: &
Особиста оцінка: 8 - мені сподобалося
Глобальне вторгнення: Битва Лос-Анджелес / Battle: Los Angeles (2011) AVC Ukr/Eng | Sub Eng

Глобальне вторгнення: Битва Лос-Анджелес / Battle: Los Angeles (2011) AVC Ukr/Eng | Sub Eng


 Трекер:    Зареєстрований   

Завантажити / скачати фільм українською



відео для новачків



 Зареєстрований:   2018-10-06 08:51
 Розмір:   2.9 GB 
 Оцінка фільму:   8.3/10 (Голосів: 13)
   
bot 
робот


З нами з: 30.09.07
Востаннє: 26.05.05
Повідомлень: 21384

2018-10-04 22:35  
Тему перенесено з Фільми до форуму Анонси релізів


staf777

bot 
робот


З нами з: 30.09.07
Востаннє: 26.05.05
Повідомлень: 21384

2018-10-06 08:51  
Тему перенесено з Анонси релізів до форуму Фільми


staf777

Ваш часовий пояс: GMT + 2 Години

Нова тема   Відповісти