Проповідник з кулеметом / Проповідник з автоматом / Machine Gun Preacher (2011) 1080p Ukr/Eng | Sub Ukr/Eng

Нові коментарі

Нова тема   Відповісти
Автор Повідомлення
staf777 
Попереджень: 1
Попереджень: 1 


З нами з: 16.11.16
Востаннє: 19.12.18
Повідомлень: 1939

2018-10-04 20:18  
Проповідник з кулеметом / Проповідник з автоматом / Machine Gun Preacher (2011) 1080p Ukr/Eng | Sub Ukr/Eng

Проповідник з кулеметом / Проповідник з автоматом / Machine Gun Preacher (2011) 1080p Ukr/Eng | Sub Ukr/Eng


Жанр: бойовик, біографічний, драма
Країна: США



Кінокомпанія: Relativity Media, Virgin Produced, Apparatus Productions
Режисер: Марк Форстер (Marc Forster)
Актори: Джерард Батлер (Gerard Butler), Мішель Монаґан (Michelle Monaghan), Кеті Бейкер (Kathy Baker), Майкл Шеннон (Michael Shannon), Меделін Керол (Madeline Carroll) та інші.

Сюжет:
Це історія Сема Чайлдерса, колишнього байкера-наркоторговця, крутого хлопця, який повірив у Бога і став борцем за сотні суданських дітей, які змушені були стати солдатами.


Тривалість: 02:08:43
Якість: 1080p
Відео:
кодек:
розмір кадру: 1920x800
бітрейт: 16.0 Mб/с

Аудіо # 1:
мова: українська
переклад: багатоголосий закадровий
кодек: 2.0
бітрейт: 192 кб/с

Аудіо # 2:
мова: англійська
переклад: оригінал
кодек: 5.1
бітрейт: 1509 кб/с

Джерело озвучення:


Субтитри:
мова: англійська
тип: програмні (м'які)
формат: *.srt
Info
General
Unique ID : 243689231876640490539993005602707932727 (0xB754D6C0D028475D2116F9494F2D0637)
Complete name : N:\Фільми HD\Бойовик\Machine Gun Preacher (2011) 1080p [UKR_ENG] [Hurtom].
Format :
Format version : Version 4 / Version 2
File size : 15.9 GiB
Duration : 2 h 8 min
Overall bit rate : 17.7 Mb/s
Movie name : Machine Gun Preacher (2011) 1080p [UKR_ENG] [Hurtom]
Encoded date : UTC 2018-10-05 17:28:14
Writing application : v24.0.0 ('Beyond The Pale') 64-bit
Writing library : libebml v1.3.6 + v1.4.9
Cover : Yes
Attachments : cover.jpg

Video
ID : 1
Format : AVC
Format/Info : Advanced Video Codec
Format profile : [email protected]
Format settings : CABAC / 5 Ref Frames
Format settings, CABAC : Yes
Format settings, ReFrames : 5 frames
Codec ID : V_MPEG4/ISO/AVC
Duration : 2 h 8 min
Bit rate : 16.0 Mb/s
Width : 1 920 pixels
Height : 800 pixels
Display aspect ratio : 2.40:1
Frame rate mode : Constant
Frame rate : 24.000 FPS
Color space : YUV
Chroma subsampling : 4:2:0
Bit depth : 8 bits
Scan type : Progressive
Bits/(Pixel*Frame) : 0.434
Stream size : 14.4 GiB (90%)
Writing library : core 120 r2164 da19765
Encoding settings : cabac=1 / ref=5 / deblock=1:-3:-3 / analyse=0x3:0x113 / me=tesa / subme=11 / psy=1 / psy_rd=1.18:0.00 / mixed_ref=1 / me_range=16 / chroma_me=1 / trellis=2 / 8x8dct=1 / cqm=0 / deadzone=21,11 / fast_pskip=0 / chroma_qp_offset=-2 / threads=6 / sliced_threads=0 / nr=0 / decimate=0 / interlaced=0 / bluray_compat=0 / constrained_intra=0 / bframes=7 / b_pyramid=2 / b_adapt=2 / b_bias=0 / direct=3 / weightb=1 / open_gop=0 / weightp=2 / keyint=250 / keyint_min=24 / scenecut=40 / intra_refresh=0 / rc_lookahead=40 / rc=2pass / mbtree=1 / bitrate=16000 / ratetol=1.0 / qcomp=0.60 / qpmin=0 / qpmax=69 / qpstep=4 / cplxblur=20.0 / qblur=0.5 / ip_ratio=1.40 / aq=1:0.50
Language : English
Default : Yes
Forced : No

Audio #1
ID : 2
Format : AC-3
Format/Info : Audio Coding 3
Codec ID : A_AC3
Duration : 2 h 8 min
Bit rate mode : Constant
Bit rate : 192 kb/s
Channel(s) : 2 channels
Channel positions : Front: L R
Sampling rate : 48.0 kHz
Frame rate : 31.250 FPS (1536 SPF)
Bit depth : 16 bits
Compression mode : Lossy
Stream size : 177 MiB (1%)
Title : |UA-MVO-2+2|
Language : Ukrainian
Service kind : Complete Main
Default : Yes
Forced : Yes

Audio #2
ID : 3
Format :
Format/Info : Digital Theater Systems
Codec ID : A_DTS
Duration : 2 h 8 min
Bit rate mode : Constant
Bit rate : 1 509 kb/s
Channel(s) : 6 channels
Channel positions : Front: L C R, Side: L R, LFE
Sampling rate : 48.0 kHz
Frame rate : 93.750 FPS (512 SPF)
Bit depth : 24 bits
Compression mode : Lossy
Stream size : 1.36 GiB (9%)
Language : English
Default : No
Forced : No

Text
ID : 4
Format : UTF-8
Codec ID : S_TEXT/UTF8
Codec ID/Info : UTF-8 Plain Text
Duration : 2 h 2 min
Bit rate : 46 b/s
Count of elements : 1226
Stream size : 41.9 KiB (0%)
Language : English
Default : No
Forced : No

Menu
00:00:00.000 : en:00:00:00.000
00:08:50.792 : en:00:08:50.792
00:16:54.667 : en:00:16:54.667
00:25:17.333 : en:00:25:17.333
00:32:27.167 : en:00:32:27.167
00:39:44.708 : en:00:39:44.708
00:48:33.042 : en:00:48:33.042
00:56:52.083 : en:00:56:52.083
01:04:27.958 : en:01:04:27.958
01:11:36.958 : en:01:11:36.958
01:20:10.042 : en:01:20:10.042
01:29:11.125 : en:01:29:11.125
01:36:51.917 : en:01:36:51.917
01:43:40.667 : en:01:43:40.667
01:52:32.583 : en:01:52:32.583
02:02:50.167 : en:02:02:50.167
Скріншоти




Подяки:
- п. xslim за запис з ТБ;
- п. Sensetivity за синхронізацію

Джерело: &
Особиста оцінка: 8 - мені сподобалося
Проповідник з кулеметом / Проповідник з автоматом / Machine Gun Preacher (2011) 1080p Ukr/Eng | Sub Ukr/Eng

Проповідник з кулеметом / Проповідник з автоматом / Machine Gun Preacher (2011) 1080p Ukr/Eng | Sub Ukr/Eng


 Трекер:    Зареєстрований   

Завантажити / скачати фільм українською



відео для новачків



 Зареєстрований:   2018-10-05 21:20
 Розмір:   15.91 GB 
 Оцінка фільму:   7.5/10 (Голосів: 8)
   
bot 
робот


З нами з: 30.09.07
Востаннє: 26.05.05
Повідомлень: 20375

2018-10-04 20:19  
Тему перенесено з Фільми в HD до форуму Анонси релізів


staf777

bot 
робот


З нами з: 30.09.07
Востаннє: 26.05.05
Повідомлень: 20375

2018-10-05 21:20  
Тему перенесено з Анонси релізів до форуму Фільми в HD


staf777

Ваш часовий пояс: GMT + 2 Години

Нова тема   Відповісти