Плазма. Найвеличніше сяйво / Ultimate Aurora (2013) Ukr/Eng

Нові коментарі

Нова тема   Відповісти
Автор Повідомлення
DareDevil96 
Відео Гуртом - запис з ТБ
Відео Гуртом - запис з ТБ


З нами з: 23.07.10
Востаннє: 14.02.19
Повідомлень: 610

2018-10-04 18:30  
Плазма. Найвеличніше сяйво / Ultimate Aurora (2013) Ukr/Eng





Жанр: документальний
Країна: Австрія

Телеканал / кіностудія: TLP, ABC4Explore, TVF International, Da Vinci Learning Chanell
Сюжет:
Бен Лонгмайєр вирушає до Аляски, щоб віднайти новий підхід до виробітку нового типу реактивного палива.

Тривалість: ~49:38

Якість:
Відео:
кодек:
розмір кадру: 1920x1080 (16:9)
частота кадрів: 25.000 кадр/сек
бітрейт: ~1788 кб/с

Аудіо:
мова: українська
переклад: двоголосий закадровий (2 чоловічі голоси)
кодек: MP2 2.0
бітрейт: 96 кб/с (6 кГц!)

Аудіо # 2:
мова: англійська
переклад: оригінал
кодек: 2.0
бітрейт: 126 кб/с
Info
Complete name : F:\Завантаження\Ultimate Aurora (2013) [Ukr.DaVinciLearning] [Hurtom] by DareDevil96.
Format :
Format version : Version 4 / Version 2
File size : 748 MiB
Duration : 49 min 38 s
Overall bit rate : 2 108 kb/s
Encoded date : UTC 2018-10-03 18:22:19
Writing application : v26.0.0 ('In The Game') 64-bit
Writing library : libebml v1.3.6 + v1.4.9

Video
ID : 1
Format : AVC
Format/Info : Advanced Video Codec
Format profile : [email protected]
Format settings : CABAC / 3 Ref Frames
Format settings, CABAC : Yes
Format settings, ReFrames : 3 frames
Codec ID : V_MPEG4/ISO/AVC
Duration : 49 min 38 s
Bit rate : 1 788 kb/s
Width : 1 920 pixels
Height : 1 080 pixels
Display aspect ratio : 16:9
Frame rate mode : Constant
Frame rate : 25.000 FPS
Color space : YUV
Chroma subsampling : 4:2:0
Bit depth : 8 bits
Scan type : Progressive
Bits/(Pixel*Frame) : 0.034
Stream size : 635 MiB (85%)
Default : Yes
Forced : No
Color range : Limited
Color primaries : BT.709
Transfer characteristics : BT.709
Matrix coefficients : BT.709

Audio #1
ID : 2
Format : AC-3
Format/Info : Audio Coding 3
Commercial name : Dolby Digital
Codec ID : A_AC3
Duration : 49 min 38 s
Bit rate mode : Constant
Bit rate : 192 kb/s
Channel(s) : 2 channels
Channel layout : L R
Sampling rate : 48.0 kHz
Frame rate : 31.250 FPS (1536 SPF)
Bit depth : 16 bits
Compression mode : Lossy
Stream size : 68.2 MiB (9%)
Title : ZAKADR-[Ukr.DaVinciLearning]
Language : Ukrainian
Service kind : Complete Main
Default : Yes
Forced : No

Audio #2
ID : 3
Format : LC
Format/Info : Advanced Audio Codec Low Complexity
Codec ID : A_AAC-2
Duration : 49 min 38 s
Bit rate : 126 kb/s
Channel(s) : 2 channels
Channel layout : L R
Sampling rate : 44.1 kHz
Frame rate : 43.066 FPS (1024 SPF)
Compression mode : Lossy
Stream size : 44.6 MiB (6%)
Default : No
Forced : No


Запис з телеканалу:


Скріншоти

Джерело: DareDevil96 спеціально для
Особиста оцінка: 0 - не дивився


 Трекер:    Зареєстрований   

Завантажити / скачати фільм українською



відео для новачків



 Зареєстрований:   2018-10-04 18:30
 Розмір:   748 MB 
 Оцінка фільму:   8.7/10 (Голосів: 7)
 Плазма. Найвеличніше сяйво / Ultimate Aurora (2013) WEB-DLRip Ukr/Eng
   
Ваш часовий пояс: GMT + 2 Години

Нова тема   Відповісти