Слідопит / Pathfinder [UNRATED] (2007) AVC 2xUkr/Eng | Sub Ukr/Eng

Нові коментарі

Нова тема   Відповісти
Автор Повідомлення
staf777 
Відео Гуртом - підтримка та поширення
Відео Гуртом - підтримка та поширення


З нами з: 16.11.16
Востаннє: 24.04.19
Повідомлень: 2284

2018-10-04 16:06  
Слідопит / Pathfinder [UNRATED] (2007) AVC 2xUkr/Eng | Sub Ukr/Eng

Слідопит / Pathfinder [UNRATED] (2007) AVC 2xUkr/Eng | Sub Ukr/Eng


Жанр: драма, бойовик, пригоди
Країна: США, Канада



Кінокомпанія: Twentieth Century Fox Film Corporation, Phoenix Pictures, Dune Entertainment
Режисер: Маркус Ніспел
Актори: Карл Урбан, Джей Таваре, Ніколь Муное, Майкл Труш, Натаніель Арканд, Вейн Чарльз Бейкер, Мун Блудгуд, Кленсі Браун, Ханна Джефрі

Сюжет:
Північна Америка. 600 років до прибуття Колумба. Вікінги захоплюють землі місцевих мешканців - індіанців. Після зіткнення двох племен, хлопчик вікінг залишається один і потрапляє у табір ворога.
Його приймають в плем'я і виховують. Через 25 років юний герой знову зустрічає свій рідний народ, проте наслідки цієї зустрічі стають трагічними для племені індіанців, до якого він вже звик, і герой приймає рішення поставити крапку у кривавій війні.


Тривалість: 01:47:11
Якість: AVC
Відео:
кодек:
розмір кадру: 1024x426
бітрейт: 3500 кб/с

Аудіо # 1:
мова: українська
переклад: професійний дубльований
кодек: 2.0
бітрейт: 192 кб/с

Аудіо # 2:
мова: українська
переклад: професійний дубльований
кодек: 5.1
бітрейт: 384 кб/с

Аудіо # 3:
мова: англійська
переклад: оригінал
кодек: 5.1
бітрейт: 448 кб/с

Субтитри # 1-2:[Forced+Full]
мова: українська
тип: програмні (м'які)
формат: *.srt

Субтитри # 3:
мова: англійська
тип: програмні (м'які)
формат: *.srt
Скріншоти



MI
General
Unique ID : 211115501900579339792260940813785779204 (0x9ED35DDEF7B918BA13A753CD4F5A4C04)
Complete name : N:\Майбутні релізи\Pathfinder [UNRATED] (2007) AVC [2xUKR_ENG] [Hurtom].
Format :
Format version : Version 4 / Version 2
File size : 3.39 GiB
Duration : 1 h 47 min
Overall bit rate : 4 523 kb/s
Movie name : Pathfinder [UNRATED] (2007) AVC [2xUKR_ENG] [Hurtom]
Encoded date : UTC 2018-10-04 12:32:18
Writing application : v24.0.0 ('Beyond The Pale') 64-bit
Writing library : libebml v1.3.6 + v1.4.9
Cover : Yes
Attachments : cover.png

Video
ID : 1
Format : AVC
Format/Info : Advanced Video Codec
Format profile : [email protected]
Format settings : CABAC / 10 Ref Frames
Format settings, CABAC : Yes
Format settings, ReFrames : 10 frames
Codec ID : V_MPEG4/ISO/AVC
Duration : 1 h 47 min
Bit rate : 3 500 kb/s
Width : 1 024 pixels
Height : 426 pixels
Display aspect ratio : 2.40:1
Frame rate mode : Constant
Frame rate : 23.976 (24000/1001) FPS
Color space : YUV
Chroma subsampling : 4:2:0
Bit depth : 8 bits
Scan type : Progressive
Bits/(Pixel*Frame) : 0.335
Stream size : 2.62 GiB (77%)
Title : ..AVC.MediaClub
Writing library : core 142 r2409+42 04be48a tMod [[email protected]:2:0 X86]
Encoding settings : cabac=1 / ref=10 / deblock=1:-2:-2 / analyse=0x3:0x133 / me=umh / subme=11 / psy=1 / fade_compensate=0.00 / psy_rd=1.00:0.20 / mixed_ref=1 / me_range=32 / chroma_me=1 / trellis=2 / 8x8dct=1 / cqm=0 / deadzone=21,11 / fast_pskip=0 / chroma_qp_offset=-3 / threads=3 / lookahead_threads=1 / sliced_threads=0 / nr=0 / decimate=0 / interlaced=0 / bluray_compat=0 / constrained_intra=0 / fgo=0 / bframes=8 / b_pyramid=2 / b_adapt=2 / b_bias=0 / direct=3 / weightb=1 / open_gop=0 / weightp=2 / keyint=240 / keyint_min=23 / scenecut=40 / intra_refresh=0 / rc=2pass / mbtree=0 / bitrate=3500 / ratetol=1.0 / qcomp=0.60 / qpmin=0:0:0 / qpmax=69:69:69 / qpstep=4 / cplxblur=20.0 / qblur=0.5 / ip_ratio=1.40 / pb_ratio=1.30 / aq=1:1.00 / aq-sensitivity=10.00 / aq-factor=1.00:1.00:1.00 / aq2=0 / aq3=0
Language : English
Default : Yes
Forced : No

Audio #1
ID : 2
Format : AC-3
Format/Info : Audio Coding 3
Codec ID : A_AC3
Duration : 1 h 47 min
Bit rate mode : Constant
Bit rate : 192 kb/s
Channel(s) : 2 channels
Channel positions : Front: L R
Sampling rate : 48.0 kHz
Frame rate : 31.250 FPS (1536 SPF)
Bit depth : 16 bits
Compression mode : Lossy
Stream size : 147 MiB (4%)
Title : [UA-DUB-1+1]
Language : Ukrainian
Service kind : Complete Main
Default : Yes
Forced : Yes

Audio #2
ID : 3
Format : AC-3
Format/Info : Audio Coding 3
Codec ID : A_AC3
Duration : 1 h 47 min
Bit rate mode : Constant
Bit rate : 384 kb/s
Channel(s) : 6 channels
Channel positions : Front: L C R, Side: L R, LFE
Sampling rate : 48.0 kHz
Frame rate : 31.250 FPS (1536 SPF)
Bit depth : 16 bits
Compression mode : Lossy
Stream size : 294 MiB (8%)
Language : Ukrainian
Service kind : Complete Main
Default : No
Forced : No

Audio #3
ID : 4
Format : AC-3
Format/Info : Audio Coding 3
Codec ID : A_AC3
Duration : 1 h 47 min
Bit rate mode : Constant
Bit rate : 448 kb/s
Channel(s) : 6 channels
Channel positions : Front: L C R, Side: L R, LFE
Sampling rate : 48.0 kHz
Frame rate : 31.250 FPS (1536 SPF)
Bit depth : 16 bits
Compression mode : Lossy
Stream size : 343 MiB (10%)
Title : [Original]
Language : English
Service kind : Complete Main
Default : No
Forced : No

Text #1
ID : 5
Format : UTF-8
Codec ID : S_TEXT/UTF8
Codec ID/Info : UTF-8 Plain Text
Duration : 1 h 28 min
Bit rate : 3 b/s
Count of elements : 51
Stream size : 2.21 KiB (0%)
Title : [UA-Forced]
Language : Ukrainian
Default : Yes
Forced : Yes

Text #2
ID : 6
Format : UTF-8
Codec ID : S_TEXT/UTF8
Codec ID/Info : UTF-8 Plain Text
Duration : 1 h 40 min
Bit rate : 17 b/s
Count of elements : 315
Stream size : 12.5 KiB (0%)
Language : Ukrainian
Default : No
Forced : No

Text #3
ID : 7
Format : UTF-8
Codec ID : S_TEXT/UTF8
Codec ID/Info : UTF-8 Plain Text
Duration : 1 h 40 min
Bit rate : 11 b/s
Count of elements : 320
Stream size : 8.26 KiB (0%)
Language : English
Default : No
Forced : No

Menu
00:00:00.000 : en:Main Titles/Marauders
00:02:06.335 : en:The Viking Ship
00:06:09.703 : en:Mystery Child
00:10:27.460 : en:Tribal Gathering
00:18:16.721 : en:Fear in the Forest
00:21:05.473 : en:Rampage
00:25:11.844 : en:Death by the Sword
00:27:46.456 : en:Bring Me His Head!
00:34:34.406 : en:Rescued
00:43:24.268 : en:Run and You May Live
00:47:37.730 : en:Two Wolves
00:55:36.959 : en:Sneak Attack
01:00:09.773 : en:Massacre
01:02:35.752 : en:In the Caves
01:10:17.797 : en:Torture
01:14:34.428 : en:Secret Plan
01:19:16.210 : en:Across the Lake
01:22:06.296 : en:Under the Ice
01:24:02.537 : en:Mountain Ledge
01:33:31.397 : en:I Know Who I Am
01:35:06.492 : en:Not One of Yours
01:37:40.229 : en:Spirit Prophecy
01:41:31.460 : en:Pathfinder
01:42:37.276 : en:End Titles
Джерело: &
Особиста оцінка: 8 - мені сподобалося
Слідопит / Pathfinder [UNRATED] (2007) AVC 2xUkr/Eng | Sub Ukr/Eng

Слідопит / Pathfinder [UNRATED] (2007) AVC 2xUkr/Eng | Sub Ukr/Eng


 Трекер:    Зареєстрований   

Завантажити / скачати фільм українською



відео для новачків



 Зареєстрований:   2018-10-04 16:06
 Розмір:   3.39 GB 
 Оцінка фільму:   9.9/10 (Голосів: 14)
   
Ваш часовий пояс: GMT + 2 Години

Нова тема   Відповісти