Воркрафт (Варкрафт): Початок / Warcraft (2016) 720p-mini

Нові коментарі

Нова тема   Відповісти
Автор Повідомлення
Drool 
VIP


З нами з: 17.04.10
Востаннє: 16.10.18
Повідомлень: 1484

2018-10-04 14:20  
Воркрафт (Варкрафт): Початок / Warcraft (2016) 720p-mini

Жанр: бойовик, пригоди, фентезі
Країна: США, Канада, Японія, Китай


Діти до 13 років допускаються на фільм тільки з батьками
Настійне застереження батькам. Деякий матеріал може бути невідповідним для дітей до 13 років. Цей рейтинг показує, що оцінений фільм може бути невідповідним для дітей. Батьки повинні бути особливо обережні, дозволяючи своїм маленьким дітям перегляд. Грубе або тривале насильство відсутнє; сексуальна орієнтація на наготу відсутня; деякі сцени вживання наркотиків можуть бути присутніми; можна почути одиничні вживання грубої сексуальної лексики. Присутня епізодична оголеність (не враховуючи репродуктивні органи). Присутні сексуальні натяки і натяки на гомосексуалізм чи сексуальні збочення.
Кінокомпанія: Universal Pictures, Atlas Entertainment, Legendary Pictures, Blizzard Entertainment
Режисер: Дункан Джонс
Актори: Бен Фостер, Тобі Кеббелл, Домінік Купер, Раян Роббінс, Роберт Казінськи, Тревіс Фіммел, Паула Паттон, Кленсі Браун, Каллен Мулвей, Рут Неґґа

Сюжет:
Фантастичний фільм від режисера "Місяць 2112" і "Початкового Коду" Дункана Джонса. Епічна стрічка про протистояння людей і орків, заснована на серії популярних відеоігор та романів. Королівство Азерота знаходиться на порозі війни. Мирні жителі зі своїм ватажком Андуіном Лотаром стикаються із расою жорстоких загарбників - орків. Ті, в свою чергу, шукають нову землю, бо їхня батьківщина Дренор більше не придатна для життя. Два світи з'єднає Темний портал, за допомогою якого військо ватажка орків Дуротана увірветься на землі людей. Яка раса візьме гору в цій смертельній сутичці?


Тривалість: 02:03:07
Якість: 720p-mini
Відео:
кодек:
розмір кадру: 1280x526
бітрейт: 2564 кб/с

Аудіо:
мова: українська
переклад: професійний дубльований
кодек: 2.0
бітрейт: 192 кб/с

Субтитри (форсовані):
мова: українська
тип: програмні (м'які)
формат: *.srt
Info
Код:
General
Unique ID                                : 221378650058183781207833309512742835757 (0xA68BFA24810AD0DBED49C087E5F9962D)
Complete name                            : /mnt/disk/Video/Films/Warcraft.2016.Ukr.Dub-2.0..720p-mini.UAGet.
Format                                   :
Format version                           : Version 4 / Version 2
File size                                : 2.37 GiB
Duration                                 : 2 h 3 min
Overall bit rate                         : 2 758 kb/s
Movie name                               : Воркрафт (Варкрафт): Початок / Warcraft (2016) 720p-mini -=UAGet=-
Encoded date                             : UTC 2018-10-04 10:50:39
Writing application                      : v8.2.0 ('World of Adventure') 64bit
Writing library                          : libebml v1.3.1 + v1.4.2
Cover                                    : Yes
Attachments                              : cover.jpg

Video
ID                                       : 1
Format                                   : AVC
Format/Info                              : Advanced Video Codec
Format profile                           : [email protected]
Format settings                          : CABAC / 11 Ref Frames
Format settings, CABAC                   : Yes
Format settings, RefFrames               : 11 frames
Codec ID                                 : V_MPEG4/ISO/AVC
Duration                                 : 2 h 3 min
Bit rate                                 : 2 564 kb/s
Width                                    : 1 280 pixels
Height                                   : 526 pixels
Display aspect ratio                     : 2.40:1
Frame rate mode                          : Constant
Frame rate                               : 23.976 (24000/1001) FPS
Color space                              : YUV
Chroma subsampling                       : 4:2:0
Bit depth                                : 8 bits
Scan type                                : Progressive
Bits/(Pixel*Frame)                       : 0.159
Stream size                              : 2.20 GiB (93%)
Title                                    : Воркрафт (Варкрафт): Початок / Warcraft (2016) 720p-mini -=UAGet=-
Writing library                          : core 155 r2901 7d0ff22
Encoding settings                        : cabac=1 / ref=12 / deblock=1:-3:-3 / analyse=0x3:0x133 / me=umh / subme=11 / psy=1 / psy_rd=1.00:1.00 / mixed_ref=1 / me_range=64 / chroma_me=1 / trellis=2 / 8x8dct=1 / cqm=0 / deadzone=21,11 / fast_pskip=0 / chroma_qp_offset=-4 / threads=90 / lookahead_threads=4 / sliced_threads=0 / nr=0 / decimate=1 / interlaced=0 / bluray_compat=0 / constrained_intra=0 / bframes=12 / b_pyramid=1 / b_adapt=2 / b_bias=0 / direct=3 / weightb=1 / open_gop=0 / weightp=2 / keyint=240 / keyint_min=24 / scenecut=40 / intra_refresh=0 / rc_lookahead=60 / rc=2pass / mbtree=0 / bitrate=2564 / ratetol=1.0 / qcomp=1.00 / qpmin=0 / qpmax=69 / qpstep=4 / cplxblur=20.0 / qblur=0.5 / vbv_maxrate=62500 / vbv_bufsize=78125 / nal_hrd=none / filler=0 / ip_ratio=1.40 / pb_ratio=1.30 / aq=3:0.60
Default                                  : Yes
Forced                                   : Yes
Color range                              : Limited
Color primaries                          : BT.709
Transfer characteristics                 : BT.709
Matrix coefficients                      : BT.709

Audio
ID                                       : 2
Format                                   : AC-3
Format/Info                              : Audio Coding 3
Format settings, Endianness              : Big
Codec ID                                 : A_AC3
Duration                                 : 2 h 3 min
Bit rate mode                            : Constant
Bit rate                                 : 192 kb/s
Channel(s)                               : 2 channels
Channel positions                        : Front: L R
Sampling rate                            : 48.0 kHz
Frame rate                               : 31.250 FPS (1536 SPF)
Bit depth                                : 16 bits
Compression mode                         : Lossy
Stream size                              : 169 MiB (7%)
Title                                    : 2.0 @ 192 kbps
Language                                 : Ukrainian
Service kind                             : Complete Main
Default                                  : Yes
Forced                                   : Yes

Text
ID                                       : 3
Format                                   : UTF-8
Codec ID                                 : S_TEXT/UTF8
Codec ID/Info                            : UTF-8 Plain Text
Duration                                 : 50 min 5 s
Bit rate                                 : 0 b/s
Count of elements                        : 6
Stream size                              : 221 Bytes (0%)
Title                                    : Forced
Language                                 : Ukrainian
Default                                  : Yes
Forced                                   : Yes
Скріншоти
Звукову доріжку взято з релізу .
Реліз від:
Особиста оцінка: 8 - мені сподобалося


 Трекер:    Зареєстрований   

Завантажити / скачати фільм українською



відео для новачків



 Зареєстрований:   2018-10-04 14:20
 Розмір:   2.37 GB 
 Оцінка фільму:   8.2/10 (Голосів: 5)
   
Ваш часовий пояс: GMT + 2 Години

Нова тема   Відповісти