Мовчання ягнят / The Silence of the Lambs (1991) Remux 1080p Ukr/Eng | Sub Ukr/Eng

Нові коментарі

Нова тема   Відповісти
Автор Повідомлення
IronBee 
Поважний учасник


З нами з: 08.02.10
Востаннє: 16.10.18
Повідомлень: 207

2018-10-04 11:19  
Мовчання ягнят / The Silence of the Lambs (1991) Remux 1080p Ukr/Eng | Sub Ukr/Eng

Мовчання ягнят / The Silence of the Lambs (1991) Remux 1080p Ukr/Eng | Sub Ukr/Eng


Жанр: психологічний трилер
Країна: США



Кінокомпанія: Orion Pictures Corporation, Strong Heart/Demme Production
Режисер: Джонатан Демме
Актори: Ентоні Гопкінс, Джоді Фостер, Скотт Гленн, Роджер Кормен, Чарльз Нап'єр, Дайан Бейкер

Сюжет:
Психопат викрадає і вбиває молодих жінок по всьому Середньому Заходу Америки. ФБР, упевнене в тому, що всі злочини здійснені однією й тією ж людиною, доручає агенту Кларисі Стерлінг зустрітися з ув'язненим-маніяком, який міг би пояснити слідству психологічні мотиви серійного вбивці і таким чином вивести на його слід.


Тривалість: 01:58:47
Якість: Remux
Відео:
кодек:
розмір кадру: 1920 х 1080
бітрейт: 34.5 Mб/с

Аудіо # 1:
мова: українська
переклад: двоголосий закадровий | 1+1
кодек: 2.0
бітрейт: 192 кб/с

Аудіо # 2:
мова: англійська
переклад: оригінал
кодек: -HD 5.1
бітрейт: 3948 кб/с

Субтитри # 1:
мова: українська
тип: програмні (м'які)
формат: *.srt

Субтитри # 2-3:
мова: англійська (повні, SDH)
тип: програмні (м'які)
формат: *.srt
Info
General
Unique ID : 130434648009941912229395312211838865069 (0x6220CCA8055A4D9B7FA40B9D857B8EAD)
Complete name : E:\Films\Мовчання ягнят The Silence of the Lambs (1991) Remux 1080p UkrEng Sub UkrEng[Hurtom].
Format :
Format version : Version 4
File size : 32.1 GiB
Duration : 1 h 58 min
Overall bit rate mode : Variable
Overall bit rate : 38.6 Mb/s
Encoded date : UTC 2018-10-02 08:54:52
Writing application : v27.0.0 ('Metropolis') 64-bit
Writing library : libebml v1.3.6 + v1.4.9

Video
ID : 1
Format : AVC
Format/Info : Advanced Video Codec
Format profile : [email protected]
Format settings : CABAC / 4 Ref Frames
Format settings, CABAC : Yes
Format settings, ReFrames : 4 frames
Codec ID : V_MPEG4/ISO/AVC
Duration : 1 h 58 min
Bit rate mode : Variable
Bit rate : 34.5 Mb/s
Maximum bit rate : 37.0 Mb/s
Width : 1 920 pixels
Height : 1 080 pixels
Display aspect ratio : 16:9
Frame rate mode : Constant
Frame rate : 23.976 (24000/1001) FPS
Color space : YUV
Chroma subsampling : 4:2:0
Bit depth : 8 bits
Scan type : Progressive
Bits/(Pixel*Frame) : 0.694
Stream size : 28.6 GiB (89%)
Language : English
Default : Yes
Forced : No

Audio #1
ID : 2
Format : AC-3
Format/Info : Audio Coding 3
Commercial name : Dolby Digital
Codec ID : A_AC3
Duration : 1 h 58 min
Bit rate mode : Constant
Bit rate : 192 kb/s
Channel(s) : 2 channels
Channel layout : L R
Sampling rate : 48.0 kHz
Frame rate : 31.250 FPS (1536 SPF)
Bit depth : 16 bits
Compression mode : Lossy
Stream size : 163 MiB (0%)
Title : 2.0 @ 192 kbps - DVO, 1+1
Language : Ukrainian
Service kind : Complete Main
Default : Yes
Forced : No

Audio #2
ID : 3
Format : XLL
Format/Info : Digital Theater Systems
Commercial name : -HD Master Audio
Codec ID : A_DTS
Duration : 1 h 58 min
Bit rate mode : Variable
Bit rate : 3 948 kb/s
Channel(s) : 6 channels
Channel layout : C L R Ls Rs LFE
Sampling rate : 48.0 kHz
Frame rate : 93.750 FPS (512 SPF)
Bit depth : 24 bits
Compression mode : Lossless
Stream size : 3.28 GiB (10%)
Title : -HD MA 5.1 @ 3948 kbps - Original
Language : English
Default : No
Forced : No

Text #1
ID : 4
Format : UTF-8
Codec ID : S_TEXT/UTF8
Codec ID/Info : UTF-8 Plain Text
Duration : 1 h 58 min
Bit rate : 77 b/s
Count of elements : 1116
Stream size : 67.5 KiB (0%)
Language : Ukrainian
Default : No
Forced : No

Text #2
ID : 5
Format : UTF-8
Codec ID : S_TEXT/UTF8
Codec ID/Info : UTF-8 Plain Text
Duration : 1 h 50 min
Bit rate : 54 b/s
Count of elements : 1264
Stream size : 43.7 KiB (0%)
Language : English
Default : No
Forced : No

Text #3
ID : 6
Format : UTF-8
Codec ID : S_TEXT/UTF8
Codec ID/Info : UTF-8 Plain Text
Duration : 1 h 52 min
Bit rate : 60 b/s
Count of elements : 1469
Stream size : 50.1 KiB (0%)
Title : SDN
Language : English
Default : No
Forced : No

Menu
00:00:00.000 : en:
00:08:30.259 : en:
00:20:55.796 : en:
00:31:54.329 : en:
00:38:39.442 : en:
00:46:50.766 : en:
00:50:02.541 : en:
00:59:46.082 : en:
01:05:05.192 : en:
01:18:40.006 : en:
01:25:24.285 : en:
01:32:04.769 : en:
01:36:42.213 : en:
01:40:45.914 : en:
01:50:42.761 : en:
Скріншоти





За запис з ТБ дякую п. xslim, Bohdan237
За постер дякую п. Dj BenLaden, bober-mober
За субтитри дякую пану w2958l

Джерело: &
Особиста оцінка: 10 - без зайвих вагань рекомендую всім!


Золотий реліз (завантажене не впливає на рейтинг)
 Трекер:    Зареєстрований   

Завантажити / скачати фільм українською



відео для новачків



 Зареєстрований:   2018-10-04 11:19
 Розмір:   32.07 GB 
 Оцінка фільму:   10/10 (Голосів: 3)
   
lenina4040 
Поважний учасник


З нами з: 03.11.12
Востаннє: 15.10.18
Повідомлень: 157

2018-10-04 19:12  
Цитата:
серійної вбивці
серійного вбивці
Ваш часовий пояс: GMT + 2 Години

Нова тема   Відповісти