Небесний капітан і світ майбутнього / Sky Captain and the World of Tomorrow (2004) 720p Ukr/Eng | Sub Eng

Нові коментарі

Нова тема   Відповісти
Автор Повідомлення
Anonymous 







2018-10-04 06:49  
Небесний капітан і світ майбутнього / Sky Captain and the World of Tomorrow (2004) 720p Ukr/Eng | Sub Eng

Небесний капітан і світ майбутнього / Sky Captain and the World of Tomorrow (2004) 720p Ukr/Eng | Sub Eng


Жанр: фантастика, бойовик, пригодницький
Країна: США, Велика Британія, Італія



Кінокомпанія: Paramount Pictures
Режисер: Керрі Конран / Kerry Conran
Актори: Джуд Лоу / Jude Law, Гвінет Пелтроу / Gwyneth Paltrow, Анджеліна Джолі / Angelina Jolie, Джованні Рібізі / Giovanni Ribisi, Майкл Гембон / Michael Gambon, Лінг Бай / Ling Bai

Сюжет:
Над Нью-Йорком кінця 30-х сніг йде з дірки в небесах, виє сирена повітряної тривоги, а по бруківці, рушають неструнким кроком залізні роботи, що мають ріст з будинок. Роботів надіслав німецький натураліст і зоотехнік Тотенкопф - колишній вундеркінд і кандидат у нобелівські лауреати. Він вже занадто пильно вивчав улаштування буття і дійшов до висновку: щоб світ став кращим, треба всіх убити. Уряди завмерли в безпорадності, армії не діють, і цілком протистояти безумцю можуть лише двоє у цілому світі: авіатор Салліван і репортерша Поллі.


Тривалість: 01:46:36
Якість:
Відео:
кодек:
розмір кадру: 1280х720
бітрейт: 4462 кб/с

Аудіо # 1:
мова: українська
переклад: двоголосий закадровий
кодек: 5.1
бітрейт: 448 кб/с

Аудіо # 2:
мова: англійська
переклад: оригінал
кодек: 5.1
бітрейт: 448 кб/с

Субтитри:
мова: англійська
тип: програмні (м'які)
формат: *.srt
Info
General
Unique ID : 241565060067058906008563589743794995524 (0xB5BBBCFF44AEB5DD835B65961D544144)
Format :
Format version : Version 4 / Version 2
File size : 3.99 GiB
Duration : 1 h 46 min
Overall bit rate : 5 359 kb/s
Encoded date : UTC 2018-10-04 04:42:15
Writing application : v6.1.0 ('Old Devil') built on Mar 4 2013 09:10:42
Writing library : libebml v1.3.0 + v1.4.0

Video
ID : 1
Format : AVC
Format/Info : Advanced Video Codec
Format profile : [email protected]
Format settings : CABAC / 9 Ref Frames
Format settings, CABAC : Yes
Format settings, ReFrames : 9 frames
Codec ID : V_MPEG4/ISO/AVC
Duration : 1 h 46 min
Bit rate : 4 462 kb/s
Width : 1 280 pixels
Height : 720 pixels
Display aspect ratio : 16:9
Frame rate mode : Constant
Frame rate : 23.976 (24000/1001) FPS
Color space : YUV
Chroma subsampling : 4:2:0
Bit depth : 8 bits
Scan type : Progressive
Bits/(Pixel*Frame) : 0.202
Stream size : 3.24 GiB (81%)
Writing library : core 146 r2538 121396c
Encoding settings : cabac=1 / ref=9 / deblock=1:-3:-3 / analyse=0x3:0x113 / me=umh / subme=11 / psy=1 / psy_rd=1.00:0.00 / mixed_ref=1 / me_range=32 / chroma_me=1 / trellis=2 / 8x8dct=1 / cqm=0 / deadzone=21,11 / fast_pskip=0 / chroma_qp_offset=-2 / threads=12 / lookahead_threads=3 / sliced_threads=0 / nr=0 / decimate=1 / interlaced=0 / bluray_compat=0 / constrained_intra=0 / bframes=10 / b_pyramid=2 / b_adapt=2 / b_bias=0 / direct=3 / weightb=1 / open_gop=0 / weightp=2 / keyint=240 / keyint_min=23 / scenecut=40 / intra_refresh=0 / rc_lookahead=50 / rc=2pass / mbtree=0 / bitrate=4462 / ratetol=1.0 / qcomp=0.60 / qpmin=0 / qpmax=69 / qpstep=4 / cplxblur=20.0 / qblur=0.5 / vbv_maxrate=62500 / vbv_bufsize=78125 / nal_hrd=none / filler=0 / ip_ratio=1.40 / pb_ratio=1.30 / aq=1:1.00 / zones=140146,153359,b=0.3
Language : English
Default : No
Forced : No

Audio #1
ID : 2
Format : AC-3
Format/Info : Audio Coding 3
Codec ID : A_AC3
Duration : 1 h 46 min
Bit rate mode : Constant
Bit rate : 448 kb/s
Channel(s) : 6 channels
Channel positions : Front: L C R, Side: L R, LFE
Sampling rate : 48.0 kHz
Frame rate : 31.250 FPS (1536 SPF)
Bit depth : 16 bits
Compression mode : Lossy
Delay relative to video : -2043 ms
Stream size : 342 MiB (8%)
Title : UKR (Kino)
Language : Ukrainian
Service kind : Complete Main
Default : Yes
Forced : Yes

Audio #2
ID : 3
Format : AC-3
Format/Info : Audio Coding 3
Codec ID : A_AC3
Duration : 1 h 46 min
Bit rate mode : Constant
Bit rate : 448 kb/s
Channel(s) : 6 channels
Channel positions : Front: L C R, Side: L R, LFE
Sampling rate : 48.0 kHz
Frame rate : 31.250 FPS (1536 SPF)
Bit depth : 16 bits
Compression mode : Lossy
Stream size : 342 MiB (8%)
Language : English
Service kind : Complete Main
Default : No
Forced : No

Text
ID : 4
Format : UTF-8
Codec ID : S_TEXT/UTF8
Codec ID/Info : UTF-8 Plain Text
Language : English
Default : No
Forced : No

Menu
00:00:00.000 : en:00:00:00.000
00:06:02.862 : en:00:06:02.862
00:11:26.853 : en:00:11:26.853
00:16:46.756 : en:00:16:46.756
00:23:47.676 : en:00:23:47.676
00:28:08.520 : en:00:28:08.520
00:36:46.454 : en:00:36:46.454
00:41:03.378 : en:00:41:03.378
00:46:12.269 : en:00:46:12.269
00:53:27.204 : en:00:53:27.204
01:01:33.106 : en:01:01:33.106
01:06:03.960 : en:01:06:03.960
01:12:37.937 : en:01:12:37.937
01:17:54.837 : en:01:17:54.837
01:24:51.753 : en:01:24:51.753
01:31:05.627 : en:01:31:05.627
01:36:00.505 : en:01:36:00.505
Скріншоти









За українську доріжку подяка п.: Romario_O, Merdiff, _oles
За постер подяка п. thefir
Особиста подяка пану denixx за надану матеріальну допомогу на підтримку цього і майбутніх релізів.
Джерело:


Срібний реліз (на рейтинг впливає 50% завантаженого)
 Трекер:    Зареєстрований   

Завантажити / скачати фільм українською



відео для новачків



 Зареєстрований:   2018-10-04 06:49
 Розмір:   3.99 GB 
 Оцінка фільму:   9/10 (Голосів: 10)
   
Ваш часовий пояс: GMT + 2 Години

Нова тема   Відповісти