Не займайте Зохана (Не жартуйте з Зоханом, Краще не чіпати Зохана) [Розширена версія] / You Don't Mess with the Zohan [Unrated] (2008) AVC 2xUkr/Eng | Sub Eng

Нові коментарі

Нова тема   Відповісти
Автор Повідомлення
staf777 
Відео Гуртом - підтримка та поширення
Відео Гуртом - підтримка та поширення


З нами з: 16.11.16
Востаннє: 18.04.19
Повідомлень: 2258

2018-10-03 20:10  
Не займайте Зохана / Не жартуйте з Зоханом / Краще не чіпати Зохана [Розширена версія] / You Don't Mess with the Zohan [Unrated] (2008) AVC 2xUkr/Eng | Sub Eng

Не займайте Зохана (Не жартуйте з Зоханом, Краще не чіпати Зохана) [Розширена версія] / You Don't Mess with the Zohan [Unrated] (2008) AVC 2xUkr/Eng | Sub Eng


Жанр: бойовик, комедія, музичний, романтичний
Країна: США



Кінокомпанія: Columbia Pictures
Режисер: Денніс Дуган
Актори: Адам Сендлер, Джон Туртурро, Емануель Шрікі, Нік Свардсон, Лейні Кезан, Роб Шнайдер

Сюжет:
Зохану, агентові ізраїльської спецслужби Моссад хочеться мирного і спокійного життя. Відчуваючи, що на землі обітованою його бажання не здійсниться, він наважується на крайні заходи. Імітуючи свою смерть, Зохан зникає з Ізраїлю і, трохи змінивши зовнішність, з?являється в Нью-Йорку. Там він освоює мирну професію перукаря, знайомиться з дівчатами, словом, майже здійснює свою мрію. Але ледве тільки герой починає відчувати смак свого нового життя, як минуле наздоганяє його і Зохану доводиться згадувати своє старе ремесло.


Тривалість: 01:56:53 Розширена версія, довше театральної на 4 хвилини. На місця без перекладу присутні форсовані субтитри.

Якість: AVC
Відео:
кодек:
розмір кадру: 1024x554
бітрейт: 2700 кб/с

Аудіо # 1:
мова: українська
переклад: професійний дубльований | Невафільм Україна
кодек: 5.1
бітрейт: 448 кб/с

Аудіо # 2:
мова: українська
переклад: багатоголосий закадровий
кодек: 2.0
бітрейт: 192 кб/с

Аудіо # 3:
мова: англійська
переклад: оригінал
кодек: 5.1
бітрейт: 448 кб/с

Субтитри# 1:
мова: українська (форсовані, лише на місця без перекладу)
тип: програмні (м'які)
формат: *.srt

Субтитри # 2:
мова: англійська
тип: програмні (м'які)
формат: *.srt
Info
General
Unique ID : 235719337775767061009637866159460524943 (0xB155E4A2D0710899350216D75E87238F)
Complete name : N:\Кінозал\You Don't Mess with the Zohan [Unrated] (2008) AVC [UKR_ENG] [Hurtom].
Format :
Format version : Version 4 / Version 2
File size : 3.09 GiB
Duration : 1 h 56 min
Overall bit rate : 3 788 kb/s
Movie name : You Don't Mess with the Zohan [Unrated] (2008) AVC [UKR_ENG] [Hurtom]
Encoded date : UTC 2018-10-04 07:40:05
Writing application : v24.0.0 ('Beyond The Pale') 64-bit
Writing library : libebml v1.3.6 + v1.4.9
Cover : Yes
Attachments : cover.jpg / logfile.log

Video
ID : 1
Format : AVC
Format/Info : Advanced Video Codec
Format profile : [email protected]
Format settings : CABAC / 8 Ref Frames
Format settings, CABAC : Yes
Format settings, ReFrames : 8 frames
Codec ID : V_MPEG4/ISO/AVC
Duration : 1 h 56 min
Bit rate : 2 700 kb/s
Width : 1 024 pixels
Height : 554 pixels
Display aspect ratio : 1.85:1
Frame rate mode : Constant
Frame rate : 23.976 (24000/1001) FPS
Color space : YUV
Chroma subsampling : 4:2:0
Bit depth : 8 bits
Scan type : Progressive
Bits/(Pixel*Frame) : 0.199
Stream size : 2.20 GiB (71%)
Writing library : core 114 r1913 5fd3dce
Encoding settings : cabac=1 / ref=8 / deblock=1:-1:-1 / analyse=0x3:0x133 / me=umh / subme=10 / psy=1 / psy_rd=1.00:0.00 / mixed_ref=1 / me_range=32 / chroma_me=1 / trellis=2 / 8x8dct=1 / cqm=0 / deadzone=21,11 / fast_pskip=1 / chroma_qp_offset=8 / threads=3 / sliced_threads=0 / nr=0 / decimate=1 / interlaced=0 / constrained_intra=0 / bframes=6 / b_pyramid=2 / b_adapt=2 / b_bias=0 / direct=1 / weightb=1 / open_gop=0 / weightp=2 / keyint=250 / keyint_min=23 / scenecut=40 / intra_refresh=0 / rc=2pass / mbtree=0 / bitrate=2700 / ratetol=1.0 / qcomp=0.60 / qpmin=0 / qpmax=69 / qpstep=4 / cplxblur=20.0 / qblur=0.5 / ip_ratio=1.40 / pb_ratio=1.30 / aq=1:1.00
Language : English
Default : Yes
Forced : No

Audio #1
ID : 2
Format : AC-3
Format/Info : Audio Coding 3
Codec ID : A_AC3
Duration : 1 h 56 min
Bit rate mode : Constant
Bit rate : 448 kb/s
Channel(s) : 6 channels
Channel positions : Front: L C R, Side: L R, LFE
Sampling rate : 48.0 kHz
Frame rate : 31.250 FPS (1536 SPF)
Bit depth : 16 bits
Compression mode : Lossy
Stream size : 375 MiB (12%)
Title : Dub, , 448kbps
Language : Ukrainian
Service kind : Complete Main
Default : Yes
Forced : Yes

Audio #2
ID : 3
Format : AC-3
Format/Info : Audio Coding 3
Codec ID : A_AC3
Duration : 1 h 56 min
Bit rate mode : Constant
Bit rate : 192 kb/s
Channel(s) : 2 channels
Channel positions : Front: L R
Sampling rate : 48.0 kHz
Frame rate : 31.250 FPS (1536 SPF)
Bit depth : 16 bits
Compression mode : Lossy
Stream size : 161 MiB (5%)
Title : [UA-MVO- ICTV]
Language : Ukrainian
Service kind : Complete Main
Default : No
Forced : No

Audio #3
ID : 4
Format : AC-3
Format/Info : Audio Coding 3
Codec ID : A_AC3
Duration : 1 h 56 min
Bit rate mode : Constant
Bit rate : 448 kb/s
Channel(s) : 6 channels
Channel positions : Front: L C R, Side: L R, LFE
Sampling rate : 48.0 kHz
Frame rate : 31.250 FPS (1536 SPF)
Bit depth : 16 bits
Compression mode : Lossy
Stream size : 375 MiB (12%)
Language : English
Service kind : Complete Main
Default : No
Forced : No

Text #1
ID : 5
Format : UTF-8
Codec ID : S_TEXT/UTF8
Codec ID/Info : UTF-8 Plain Text
Duration : 1 h 16 min
Bit rate : 7 b/s
Count of elements : 65
Stream size : 4.38 KiB (0%)
Title : Unrated Parts Only
Language : Ukrainian
Default : Yes
Forced : Yes

Text #2
ID : 6
Format : UTF-8
Codec ID : S_TEXT/UTF8
Codec ID/Info : UTF-8 Plain Text
Duration : 1 h 48 min
Bit rate : 78 b/s
Count of elements : 1664
Stream size : 62.0 KiB (0%)
Language : English
Default : No
Forced : No

Menu
00:00:00.000 : :Chapter 01
00:05:00.000 : :Chapter 02
00:10:00.000 : :Chapter 03
00:15:00.000 : :Chapter 04
00:20:00.000 : :Chapter 05
00:25:00.000 : :Chapter 06
00:30:00.000 : :Chapter 07
00:35:00.000 : :Chapter 08
00:40:00.000 : :Chapter 09
00:45:00.000 : :Chapter 10
00:50:00.000 : :Chapter 11
00:55:00.000 : :Chapter 12
01:00:00.000 : :Chapter 13
01:05:00.000 : :Chapter 14
01:10:00.000 : :Chapter 15
01:15:00.000 : :Chapter 16
01:20:00.000 : :Chapter 17
01:25:00.000 : :Chapter 18
01:30:00.000 : :Chapter 19
01:35:00.000 : :Chapter 20
01:40:00.000 : :Chapter 21
01:45:00.000 : :Chapter 22
01:50:00.000 : :Chapter 23
01:55:00.000 : :Chapter 24
Скріншоти





Джерело: &
Подяка fl_fl за постер.
Особиста оцінка: 0 - не дивився


 Трекер:    Зареєстрований   

Завантажити / скачати фільм українською



відео для новачків



 Зареєстрований:   2018-10-04 17:23
 Розмір:   3.09 GB 
 Оцінка фільму:   9.1/10 (Голосів: 20)
   
bot 
робот


З нами з: 30.09.07
Востаннє: 26.05.05
Повідомлень: 21205

2018-10-04 17:23  
Тему перенесено з Анонси релізів до форуму Фільми


staf777

Ваш часовий пояс: GMT + 2 Години

Нова тема   Відповісти