Брюс всемогутній / Bruce Almighty (2003) 1080p H.265 Ukr/Eng | Sub Eng

Нові коментарі

Нова тема   Відповісти
Автор Повідомлення
-Star-Lord- 
Поважний учасник


З нами з: 09.08.18
Востаннє: 17.10.18
Повідомлень: 197

2018-10-03 18:20  
Брюс всемогутній / Bruce Almighty (2003) 1080p H.265 Ukr/Eng | Sub Eng

Брюс всемогутній / Bruce Almighty (2003) 1080p H.265 Ukr/Eng | Sub Eng


Жанр: комедія, драма, фентезі
Країна: США



Кінокомпанія: Spyglass Entertainment, Universal Pictures, Shady Acres Entertainment
Режисер: Том Шедьяк
Актори: Джим Керрі, Морґан Фрімен, Дженіфер Еністон, Філіп Бейкер Гол, Кетерін Бел, Ліза Ен Волтер, Стів Карел та інші

Сюжет:
Брюс Нолан - популярний ведучий теленовин у Баффало. Він - песиміст, і його нічого не цікавить у цьому житті, навіть дівчина Грейс, яка любить його, незважаючи на всю його шкідливість. Його репортажі цікавлять усіх, крім його самого. Мрія Брюса - бути ведучим, тим більше місце от-от повинне звільнитися. Але одного разу Брюса наздоганяє невдача, і його звільняють з роботи. Зрештою, розчарований Брюс гнівається на Бога, а той... відповідає йому! Всемогутній пропонує Брюсу замінити його на тиждень і подивитися, чи зможе він зробити світ хоч трішечки кращим...


Тривалість: 01:41:02
Якість:
Відео:
кодек: H.265 (HEVC)
розмір кадру: 1920 х 1080
бітрейт: 5 707 кб/с
бітова глибина: 10 біт
Увага! Перед завантаженням переконайтесь, що ваш пристрій відтворення (та/або ПЗ) підтримує H.265 (HEVC)

Аудіо # 1:
мова: українська
переклад: багатоголосий закадровий
кодек: 2.0
бітрейт: 192 кб/с

Аудіо # 2:
мова: англійська
переклад: оригінал
кодек: 5.1
бітрейт: 448 кб/с

Субтитри:
мова: англійська
тип: програмні (м'які)
формат: *.srt


Info
Код:
General
Unique ID                                : 129722893971073424673191085254782138762 (0x6197B8790DF7F9E4DE8DA736C4FEB98A)
Complete name                            : F:\Video\Bruce Almighty (2003) 1080p H.265 [UKR_ENG].
Format                                   :
Format version                           : Version 4 / Version 2
File size                                : 4.57 GiB
Duration                                 : 1 h 41 min
Overall bit rate                         : 6 483 kb/s
Movie name                               : Bruce Almighty (2003)
Encoded date                             : UTC 2018-10-03 15:10:01
Writing application                      : v20.0.0 ('I Am The Sun') 32-bit
Writing library                          : libebml v1.3.5 + v1.4.8
Cover                                    : Yes
Attachments                              : Cover.jpg

Video
ID                                       : 1
Format                                   : HEVC
Format/Info                              : High Efficiency Video Coding
Format profile                           : Main [email protected]@High
Codec ID                                 : V_MPEGH/ISO/HEVC
Duration                                 : 1 h 41 min
Bit rate                                 : 5 840 kb/s
Width                                    : 1 920 pixels
Height                                   : 1 080 pixels
Display aspect ratio                     : 16:9
Frame rate mode                          : Constant
Frame rate                               : 23.976 (24000/1001) FPS
Color space                              : YUV
Chroma subsampling                       : 4:2:0
Bit depth                                : 10 bits
Bits/(Pixel*Frame)                       : 0.117
Stream size                              : 4.12 GiB (90%)
Writing library                          : x265 2.8+19-bcdc610cf5f0:[Windows][GCC 7.3.0][64 bit] 10bit
Encoding settings                        : cpuid=1111039 / frame-threads=9 / numa-pools=8 / wpp / no-pmode / no-pme / no-psnr / no-ssim / log-level=3 / input-csp=1 / input-res=1920x1080 / interlace=0 / total-frames=0 / level-idc=41 / high-tier=1 / uhd-bd=0 / ref=5 / allow-non-conformance / no-repeat-headers / annexb / no-aud / no-hrd / info / hash=0 / no-temporal-layers / open-gop / min-keyint=24 / keyint=240 / gop-lookahead=0 / bframes=8 / b-adapt=2 / b-pyramid / bframe-bias=0 / rc-lookahead=40 / lookahead-slices=6 / scenecut=40 / radl=0 / no-intra-refresh / ctu=64 / min-cu-size=8 / no-rect / no-amp / max-tu-size=32 / tu-inter-depth=1 / tu-intra-depth=1 / limit-tu=0 / rdoq-level=0 / dynamic-rd=0.00 / no-ssim-rd / signhide / no-tskip / nr-intra=0 / nr-inter=0 / no-constrained-intra / strong-intra-smoothing / max-merge=2 / limit-refs=3 / no-limit-modes / me=3 / subme=7 / merange=57 / temporal-mvp / weightp / no-weightb / no-analyze-src-pics / deblock=-3:-3 / no-sao / no-sao-non-deblock / rd=3 / no-early-skip / rskip / no-fast-intra / no-tskip-fast / no-cu-lossless / no-b-intra / no-splitrd-skip / rdpenalty=0 / psy-rd=2.00 / psy-rdoq=0.00 / no-rd-refine / no-lossless / cbqpoffs=0 / crqpoffs=0 / rc=crf / crf=18.0 / qcomp=0.60 / qpstep=4 / stats-write=0 / stats-read=0 / vbv-maxrate=50000 / vbv-bufsize=50000 / vbv-init=0.9 / crf-max=0.0 / crf-min=0.0 / ipratio=1.40 / pbratio=1.30 / aq-mode=1 / aq-strength=1.00 / cutree / zone-count=0 / no-strict-cbr / qg-size=32 / no-rc-grain / qpmax=69 / qpmin=0 / no-const-vbv / sar=1 / overscan=0 / videoformat=5 / range=0 / colorprim=1 / transfer=1 / colormatrix=1 / chromaloc=0 / display-window=0 / max-cll=0,0 / min-luma=0 / max-luma=1023 / log2-max-poc-lsb=8 / vui-timing-info / vui-hrd-info / slices=1 / no-opt-qp-pps / no-opt-ref-list-length-pps / no-multi-pass-opt-rps / scenecut-bias=0.05 / no-opt-cu-delta-qp / no-aq-motion / no-hdr / no-hdr-opt / no-dhdr10-opt / no-idr-recovery-sei / analysis-reuse-level=5 / scale-factor=0 / refine-intra=0 / refine-inter=0 / refine-mv=0 / no-limit-sao / ctu-info=0 / no-lowpass-dct / refine-mv-type=0 / copy-pic=1 / max-ausize-factor=1.0 / no-dynamic-refine / no-single-sei
Default                                  : Yes
Forced                                   : No
Color range                              : Limited
Color primaries                          : BT.709
Transfer characteristics                 : BT.709
Matrix coefficients                      : BT.709

Audio #1
ID                                       : 2
Format                                   : AC-3
Format/Info                              : Audio Coding 3
Codec ID                                 : A_AC3
Duration                                 : 1 h 41 min
Bit rate mode                            : Constant
Bit rate                                 : 192 kb/s
Channel(s)                               : 2 channels
Channel positions                        : Front: L R
Sampling rate                            : 48.0 kHz
Frame rate                               : 31.250 FPS (1536 SPF)
Bit depth                                : 16 bits
Compression mode                         : Lossy
Stream size                              : 139 MiB (3%)
Title                                    : 2.0 | 192 кб/с | Двоголосий закадровий | Новий канал
Language                                 : Ukrainian
Service kind                             : Complete Main
Default                                  : Yes
Forced                                   : No

Audio #2
ID                                       : 3
Format                                   : AC-3
Format/Info                              : Audio Coding 3
Codec ID                                 : A_AC3
Duration                                 : 1 h 41 min
Bit rate mode                            : Constant
Bit rate                                 : 448 kb/s
Channel(s)                               : 6 channels
Channel positions                        : Front: L C R, Side: L R, LFE
Sampling rate                            : 48.0 kHz
Frame rate                               : 31.250 FPS (1536 SPF)
Bit depth                                : 16 bits
Compression mode                         : Lossy
Stream size                              : 324 MiB (7%)
Title                                    : 5.1 | 448 кб/с | Оригінал
Language                                 : English
Service kind                             : Complete Main
Default                                  : No
Forced                                   : No

Text
ID                                       : 4
Format                                   : UTF-8
Codec ID                                 : S_TEXT/UTF8
Codec ID/Info                            : UTF-8 Plain Text
Duration                                 : 1 h 34 min
Bit rate                                 : 54 b/s
Count of elements                        : 1082
Stream size                              : 37.6 KiB (0%)
Language                                 : English
Default                                  : No
Forced                                   : No

Menu
00:00:00.000                             : en:Buffalo's Biggest Cookie
00:05:46.596                             : en:This is My Luck
00:09:08.256                             : en:The Anti-Bruce Barrier
00:13:18.798                             : en:Bruce's Breakdown
00:17:22.082                             : en:Fired
00:23:00.921                             : en:Paging Mr. Nolan
00:25:18.683                             : en:The Man in Room 7
00:31:40.189                             : en:Bruce Almighty
00:41:09.341                             : en:A Night to Remember
00:47:39.606                             : en:Mr. Exclusive
00:53:03.221                             : en:Bruce's Revenge
00:55:25.488                             : en:We Got Anchor
00:57:38.246                             : en:A Bunche of Winners
01:02:43.551                             : en:Falling From Grace
01:13:07.299                             : en:Out of Control
01:19:26.261                             : en:Being the Miracle
01:23:41.725                             : en:Grace's Prayer
01:25:43.596                             : en:The Divine Spark
01:29:27.362                             : en:The New Bruce
01:32:38.844                             : en:End Titles
Скріншоти




Джерело:
Особиста оцінка: 10 - без зайвих вагань рекомендую всім!


Срібний реліз (на рейтинг впливає 50% завантаженого)
 Трекер:    Зареєстрований   

Завантажити / скачати фільм українською



відео для новачків



 Зареєстрований:   2018-10-03 18:20
 Розмір:   4.57 GB 
 Оцінка фільму:   8.2/10 (Голосів: 5)
   
Інші релізи
   Брюс всемогутній / Bruce Almighty (2003) 720p Ukr/Eng | Sub Eng ratbol  4 / 0   4.49 GB   2014-06-22 10:13 
   Брюс Всемогутній / Bruce Almighty (2003) 720p Ukr/Eng | Sub Eng Hulk1987  3 / 0   3.92 GB   2011-04-24 13:42 
   Брюс Всемогутній / Bruce Almighty (2003) Ukr/Eng Anonymous  5 / 0   1.82 GB   2011-01-15 00:37 
   Брюс Всемогутній / Bruce Almighty (2003) imonko  0 / 0   1.37 GB   2009-02-17 19:03 
Ваш часовий пояс: GMT + 2 Години

Нова тема   Відповісти