Завжди кажи «ТАК» / Yes Man (2008) AVC 2xUkr/Eng | Sub Eng

Нові коментарі

Нова тема   Відповісти
Автор Повідомлення
staf777 
Відео Гуртом - підтримка та поширення
Відео Гуртом - підтримка та поширення


З нами з: 16.11.16
Востаннє: 27.01.20
Повідомлень: 3373

2018-10-03 16:31  
Завжди кажи «ТАК» / Yes Man (2008) AVC 2xUkr/Eng | Sub Eng

Завжди кажи «ТАК» / Yes Man (2008) AVC 2xUkr/Eng | Sub Eng


Жанр: комедія
Країна: США, Австралія



Кінокомпанія: Warner Bros. Pictures, Village Roadshow Pictures
Режисер: Пейтон Рід
Актори: Джим Керрі, Зої Дешанель, Бредлі Купер, Джон Майкл Хіггінс, Різ Дербі, Денні Мастерсон, Теренс Стемп

Сюжет:
Депресивний головний герой завжди і всім говорив «ні» — наприклад, друзям, якщо вони звуть кудись. Але в один прекрасний день він заключає договір, за яким завжди повинен відповідати «Так» на будь-яку пропозицію…


Тривалість: 01:44:23
Якість: AVC
Відео:
кодек:
розмір кадру: 1024x426
бітрейт: 2250 кб/с

Аудіо # 1:
мова: українська
переклад: професійний дубльований
кодек: 5.1
бітрейт: 448 кб/с

Аудіо # 2:
мова: українська
переклад: багатоголосий закадровий
кодек: 2.0
бітрейт: 192 кб/с

Аудіо # 3:
мова: англійська
переклад: оригінал
кодек: 5.1
бітрейт: 448 кб/с

Джерело озвучення:
+

Субтитри:
мова: англійська
тип: програмні (м'які)
формат: *.srt
Скріншоти



MI
General
Unique ID : 151036106471725040221126396382196228876 (0x71A07EFAC1E9D38516BE5CB79D07630C)
Complete name : N:\Yes Man (2008) AVC [2xUKR_ENG] [Hurtom].
Format :
Format version : Version 4 / Version 2
File size : 2.44 GiB
Duration : 1 h 44 min
Overall bit rate : 3 340 kb/s
Movie name : Yes Man (2008) AVC [2xUKR_ENG] [Hurtom]
Encoded date : UTC 2018-10-03 13:56:58
Writing application : v24.0.0 ('Beyond The Pale') 64-bit
Writing library : libebml v1.3.6 + v1.4.9
Cover : Yes
Attachments : cover.jpg

Video
ID : 1
Format : AVC
Format/Info : Advanced Video Codec
Format profile : [email protected]
Format settings : CABAC / 7 Ref Frames
Format settings, CABAC : Yes
Format settings, ReFrames : 7 frames
Codec ID : V_MPEG4/ISO/AVC
Duration : 1 h 44 min
Bit rate : 2 250 kb/s
Width : 1 024 pixels
Height : 426 pixels
Display aspect ratio : 2.40:1
Frame rate mode : Constant
Frame rate : 23.976 (24000/1001) FPS
Color space : YUV
Chroma subsampling : 4:2:0
Bit depth : 8 bits
Scan type : Progressive
Bits/(Pixel*Frame) : 0.215
Stream size : 1.64 GiB (67%)
Writing library : core 112 r1867 22bfd31
Encoding settings : cabac=1 / ref=7 / deblock=1:-1:-1 / analyse=0x3:0x133 / me=umh / subme=9 / psy=1 / psy_rd=1.00:0.10 / mixed_ref=1 / me_range=48 / chroma_me=1 / trellis=1 / 8x8dct=1 / cqm=0 / deadzone=21,11 / fast_pskip=0 / chroma_qp_offset=-3 / threads=1 / sliced_threads=0 / nr=0 / decimate=1 / interlaced=0 / constrained_intra=0 / bframes=9 / b_pyramid=2 / b_adapt=2 / b_bias=0 / direct=1 / weightb=1 / open_gop=0 / weightp=2 / keyint=250 / keyint_min=23 / scenecut=40 / intra_refresh=0 / rc_lookahead=60 / rc=2pass / mbtree=1 / bitrate=2250 / ratetol=1.0 / qcomp=0.60 / qpmin=10 / qpmax=51 / qpstep=4 / cplxblur=20.0 / qblur=0.5 / ip_ratio=1.40 / aq=2:0.90
Language : English
Default : No
Forced : No

Audio #1
ID : 2
Format : AC-3
Format/Info : Audio Coding 3
Codec ID : A_AC3
Duration : 1 h 44 min
Bit rate mode : Constant
Bit rate : 448 kb/s
Channel(s) : 6 channels
Channel positions : Front: L C R, Side: L R, LFE
Sampling rate : 48.0 kHz
Frame rate : 31.250 FPS (1536 SPF)
Bit depth : 16 bits
Compression mode : Lossy
Stream size : 334 MiB (13%)
Title : [UA-DUB]
Language : Ukrainian
Service kind : Complete Main
Default : Yes
Forced : Yes

Audio #2
ID : 3
Format : AC-3
Format/Info : Audio Coding 3
Codec ID : A_AC3
Duration : 1 h 44 min
Bit rate mode : Constant
Bit rate : 192 kb/s
Channel(s) : 2 channels
Channel positions : Front: L R
Sampling rate : 48.0 kHz
Frame rate : 31.250 FPS (1536 SPF)
Bit depth : 16 bits
Compression mode : Lossy
Stream size : 143 MiB (6%)
Title : [UA-DVO]
Language : Ukrainian
Service kind : Complete Main
Default : No
Forced : No

Audio #3
ID : 4
Format : AC-3
Format/Info : Audio Coding 3
Codec ID : A_AC3
Duration : 1 h 44 min
Bit rate mode : Constant
Bit rate : 448 kb/s
Channel(s) : 6 channels
Channel positions : Front: L C R, Side: L R, LFE
Sampling rate : 48.0 kHz
Frame rate : 31.250 FPS (1536 SPF)
Bit depth : 16 bits
Compression mode : Lossy
Stream size : 334 MiB (13%)
Language : English
Service kind : Complete Main
Default : No
Forced : No

Text
ID : 5
Format : UTF-8
Codec ID : S_TEXT/UTF8
Codec ID/Info : UTF-8 Plain Text
Duration : 1 h 39 min
Bit rate : 72 b/s
Count of elements : 1397
Stream size : 52.9 KiB (0%)
Title : ENG SRT/UTF8
Language : English
Default : No
Forced : No
Джерело: &
Завжди кажи «ТАК» / Yes Man (2008) AVC 2xUkr/Eng | Sub Eng

Завжди кажи «ТАК» / Yes Man (2008) AVC 2xUkr/Eng | Sub Eng


 Трекер:    Зареєстрований   

Завантажити / скачати фільм українською



відео для новачків



 Зареєстрований:   2018-10-03 16:31
 Розмір:   2.44 GB 
 Оцінка фільму:   9.5/10 (Голосів: 26)
   
Інші релізи
porto12 
Поважний учасник


З нами з: 28.10.08
Востаннє: 18.01.20
Повідомлень: 207

2018-10-13 16:37  
Хороша комедія 10/10
hetzendorf 
Попереджень: 2
Попереджень: 2 


З нами з: 23.07.15
Востаннє: 27.01.20
Повідомлень: 2652

2018-11-03 01:00  
Слаба комедія.
4/10

Ваш часовий пояс: GMT + 2 Години

Нова тема   Відповісти