Хмарочос / Skyscraper (2018) 1080p H.265 Ukr/Eng | Sub Eng

Нові коментарі

Нова тема   Відповісти
Автор Повідомлення
-Star-Lord- 
Поважний учасник


З нами з: 09.08.18
Востаннє: 17.10.18
Повідомлень: 197

2018-10-03 15:51  
Хмарочос / Skyscraper (2018) 1080p H.265 Ukr/Eng | Sub Eng

Хмарочос / Skyscraper (2018) 1080p H.265 Ukr/Eng | Sub Eng


Жанр: бойовик, драма, кримінальний, трилер
Країна: США



Кінокомпанія: Legendary Entertainment, Flynn Picture Company, Seven Bucks Productions
Режисер: Роусон Маршалл Тьорбер
Актори: Двейн Джонсон, Нів Кемпбелл, Пабло Шрайбер, Ноа Тейлор, Кевін О. Ранкін, МакКенна Робертс, Роланд Мюллер, Байрон Манн, Метью О’Лірі, Адріан Холмс

Сюжет:
Ветеран війни і колишній командир команди ФБР зі звільнення заручників Вілл Форд тепер займається безпекою висотних будівель. Він відправляється в Китай для нової роботи, де стає свідком того, як найвищий і найбезпечніший хмарочос у світі охоплює полум'я, і його звинувачують в цьому. Тепер Форд є розшукуваною людиною, і щоб очистити своє ім'я, йому доведеться знайти тих, хто відповідальний за це, і в той же час якимось чином встигнути врятувати свою сім'ю, яка опинилася в пастці в тому ж хмарочосі над смугою вогню.


Тривалість: 01:42:24
Якість:
Відео:
кодек: H.265 (HEVC)
розмір кадру: 1920 х 800
бітрейт: 7 400 кб/с
бітова глибина: 10 біт
Увага! Перед завантаженням переконайтесь, що ваш пристрій відтворення (та/або ПЗ) підтримує H.265 (HEVC)

Аудіо # 1:
мова: українська
переклад: професійний дубльований
кодек: 2.0
бітрейт: 192 кб/с
примітка: репліки китайською не дублювались, є українські, форсовані субтитри

Аудіо # 2:
мова: англійська
переклад: оригінал
кодек: 5.1
бітрейт: 448 кб/с

Субтитри # 1:
мова: українська (Forced)
тип: програмні (м'які)
формат: *.srt

Субтитри # 2-:
мова: англійська (Full, SDH)
тип: програмні (м'які)
формат: *.srt


Info
Код:
General
Unique ID                                : 188394033159674522498695659125967839004 (0x8DBB5EF895D2FAB749300109DCDA5F1C)
Complete name                            : F:\Video\Skyscraper (2018) 1080p H.265 [UKR_ENG].
Format                                   :
Format version                           : Version 4 / Version 2
File size                                : 5.75 GiB
Duration                                 : 1 h 42 min
Overall bit rate                         : 8 043 kb/s
Movie name                               : Skyscraper (2018)
Encoded date                             : UTC 2018-10-05 10:21:42
Writing application                      : v20.0.0 ('I Am The Sun') 32-bit
Writing library                          : libebml v1.3.5 + v1.4.8
Cover                                    : Yes
Attachments                              : cover.jpg

Video
ID                                       : 1
Format                                   : HEVC
Format/Info                              : High Efficiency Video Coding
Format profile                           : Main [email protected]@High
Codec ID                                 : V_MPEGH/ISO/HEVC
Duration                                 : 1 h 42 min
Bit rate                                 : 7 400 kb/s
Width                                    : 1 920 pixels
Height                                   : 800 pixels
Display aspect ratio                     : 2.40:1
Frame rate mode                          : Constant
Frame rate                               : 23.976 (24000/1001) FPS
Color space                              : YUV
Chroma subsampling                       : 4:2:0
Bit depth                                : 10 bits
Bits/(Pixel*Frame)                       : 0.201
Stream size                              : 5.29 GiB (92%)
Writing library                          : x265 2.8+19-bcdc610cf5f0:[Windows][GCC 7.3.0][64 bit] 10bit
Encoding settings                        : cpuid=1049583 / frame-threads=5 / numa-pools=4 / wpp / no-pmode / no-pme / no-psnr / no-ssim / log-level=3 / input-csp=1 / input-res=1920x800 / interlace=0 / total-frames=0 / level-idc=41 / high-tier=1 / uhd-bd=0 / ref=5 / allow-non-conformance / no-repeat-headers / annexb / no-aud / no-hrd / info / hash=0 / no-temporal-layers / open-gop / min-keyint=24 / keyint=240 / gop-lookahead=0 / bframes=8 / b-adapt=2 / b-pyramid / bframe-bias=0 / rc-lookahead=40 / lookahead-slices=5 / scenecut=40 / radl=0 / no-intra-refresh / ctu=64 / min-cu-size=8 / no-rect / no-amp / max-tu-size=32 / tu-inter-depth=1 / tu-intra-depth=1 / limit-tu=0 / rdoq-level=0 / dynamic-rd=0.00 / no-ssim-rd / signhide / no-tskip / nr-intra=0 / nr-inter=0 / no-constrained-intra / strong-intra-smoothing / max-merge=2 / limit-refs=3 / no-limit-modes / me=3 / subme=7 / merange=57 / temporal-mvp / weightp / no-weightb / no-analyze-src-pics / deblock=-3:-3 / no-sao / no-sao-non-deblock / rd=3 / no-early-skip / rskip / no-fast-intra / no-tskip-fast / no-cu-lossless / no-b-intra / no-splitrd-skip / rdpenalty=0 / psy-rd=2.00 / psy-rdoq=0.00 / no-rd-refine / no-lossless / cbqpoffs=0 / crqpoffs=0 / rc=crf / crf=18.0 / qcomp=0.75 / qpstep=4 / stats-write=0 / stats-read=0 / vbv-maxrate=50000 / vbv-bufsize=50000 / vbv-init=0.9 / crf-max=0.0 / crf-min=0.0 / ipratio=1.40 / pbratio=1.30 / aq-mode=1 / aq-strength=1.00 / cutree / zone-count=0 / no-strict-cbr / qg-size=32 / no-rc-grain / qpmax=69 / qpmin=0 / no-const-vbv / sar=1 / overscan=0 / videoformat=5 / range=0 / colorprim=1 / transfer=1 / colormatrix=1 / chromaloc=0 / display-window=0 / max-cll=0,0 / min-luma=0 / max-luma=1023 / log2-max-poc-lsb=8 / vui-timing-info / vui-hrd-info / slices=1 / no-opt-qp-pps / no-opt-ref-list-length-pps / no-multi-pass-opt-rps / scenecut-bias=0.05 / no-opt-cu-delta-qp / no-aq-motion / no-hdr / no-hdr-opt / no-dhdr10-opt / no-idr-recovery-sei / analysis-reuse-level=5 / scale-factor=0 / refine-intra=0 / refine-inter=0 / refine-mv=0 / no-limit-sao / ctu-info=0 / no-lowpass-dct / refine-mv-type=0 / copy-pic=1 / max-ausize-factor=1.0 / no-dynamic-refine / no-single-sei
Language                                 : English
Default                                  : Yes
Forced                                   : No
Color range                              : Limited
Color primaries                          : BT.709
Transfer characteristics                 : BT.709
Matrix coefficients                      : BT.709

Audio #1
ID                                       : 2
Format                                   : AC-3
Format/Info                              : Audio Coding 3
Codec ID                                 : A_AC3
Duration                                 : 1 h 42 min
Bit rate mode                            : Constant
Bit rate                                 : 192 kb/s
Channel(s)                               : 2 channels
Channel positions                        : Front: L R
Sampling rate                            : 48.0 kHz
Frame rate                               : 31.250 FPS (1536 SPF)
Bit depth                                : 16 bits
Compression mode                         : Lossy
Stream size                              : 141 MiB (2%)
Title                                    : Dub [студія LeDoyen]
Language                                 : Ukrainian
Service kind                             : Complete Main
Default                                  : Yes
Forced                                   : Yes

Audio #2
ID                                       : 3
Format                                   : AC-3
Format/Info                              : Audio Coding 3
Codec ID                                 : A_AC3
Duration                                 : 1 h 42 min
Bit rate mode                            : Constant
Bit rate                                 : 448 kb/s
Channel(s)                               : 6 channels
Channel positions                        : Front: L C R, Side: L R, LFE
Sampling rate                            : 48.0 kHz
Frame rate                               : 31.250 FPS (1536 SPF)
Bit depth                                : 16 bits
Compression mode                         : Lossy
Stream size                              : 328 MiB (6%)
Title                                    : Original
Language                                 : English
Service kind                             : Complete Main
Default                                  : No
Forced                                   : No

Text #1
ID                                       : 4
Format                                   : UTF-8
Codec ID                                 : S_TEXT/UTF8
Codec ID/Info                            : UTF-8 Plain Text
Duration                                 : 1 h 26 min
Bit rate                                 : 5 b/s
Count of elements                        : 84
Stream size                              : 3.78 KiB (0%)
Title                                    : Forced
Language                                 : Ukrainian
Default                                  : Yes
Forced                                   : Yes

Text #2
ID                                       : 5
Format                                   : UTF-8
Codec ID                                 : S_TEXT/UTF8
Codec ID/Info                            : UTF-8 Plain Text
Duration                                 : 1 h 31 min
Bit rate                                 : 43 b/s
Count of elements                        : 988
Stream size                              : 29.2 KiB (0%)
Title                                    : Full
Language                                 : English
Default                                  : No
Forced                                   : No

Text #3
ID                                       : 6
Format                                   : UTF-8
Codec ID                                 : S_TEXT/UTF8
Codec ID/Info                            : UTF-8 Plain Text
Duration                                 : 1 h 42 min
Bit rate                                 : 54 b/s
Count of elements                        : 1475
Stream size                              : 40.5 KiB (0%)
Title                                    : SDH
Language                                 : English
Default                                  : No
Forced                                   : No

Menu
00:00:00.000                             : :Глава 1
00:04:24.764                             : :Глава 2
00:10:07.355                             : :Глава 3
00:16:09.927                             : :Глава 4
00:21:12.604                             : :Глава 5
00:21:12.605                             : :Глава 6
00:25:34.990                             : :Глава 7
00:30:11.726                             : :Глава 8
00:30:11.727                             : :Глава 9
00:35:23.913                             : :Глава 10
00:40:07.112                             : :Глава 11 / :Глава 12
00:47:18.960                             : :Глава 13 / :Глава 14
00:52:10.251                             : :Глава 15 / :Глава 16
00:58:16.784                             : :Глава 17
01:02:02.969                             : :Глава 18
01:05:29.634                             : :Глава 19
01:09:59.403                             : :Глава 20
01:09:59.404                             : :Глава 21
01:14:31.425                             : :Глава 22
01:17:18.256                             : :Глава 23
01:17:18.259                             : :Глава 24
01:23:33.341                             : :Глава 25
01:27:46.219                             : :Глава 26
01:32:54.569                             : :Глава 27
01:42:23.886                             : :Глава 28
Скріншоти




Джерело:
Особиста оцінка: 0 - не дивився

Підтримати купівлю інших фільмів можна тут.
Подяка пану Sando7 за синхронізацію, Lazzarus'у та Ham_R за якісні постери.


 Трекер:    Зареєстрований   

Завантажити / скачати фільм українською



відео для новачків



 Зареєстрований:   2018-10-05 13:34
 Розмір:   5.75 GB 
 Оцінка фільму:   7.4/10 (Голосів: 7)
   
Інші релізи
   Хмарочос / Skyscraper (2018) UHD Remux 2160p 4K HDR H.265 Ukr/Eng | Sub Eng Documentalist  8 / 1   51.67 GB   2018-10-11 22:26 
   Хмарочос / Skyscraper (2018) Remux 1080p Ukr/Eng | Sub Ukr/Eng kryk-v.ya.  7 / 1   28.59 GB   2018-10-04 22:21 
   Хмарочос / Skyscraper (2018) Ukr/Eng | Sub Eng 11FrYkT  32 / 1   1.46 GB   2018-10-04 18:37 
   Хмарочос / Skyscraper (2018) 720p Ukr/Eng | Sub Eng 11FrYkT  22 / 0   4.4 GB   2018-10-04 17:51 
   Хмарочос / Skyscraper (2018) AVC Ukr/Eng | Sub Eng uafilm.tv  12 / 0   2.01 GB   2018-10-03 23:07 
   Хмарочос / Skyscraper (2018) 1080p Ukr/Eng | Sub Eng staf777  28 / 0   10.44 GB   2018-09-30 21:40 
11FrYkT 
Модератор відео


З нами з: 20.02.11
Востаннє: 16.10.18
Повідомлень: 5079

2018-10-05 12:22  
-Star-Lord- написано:
українські субтитри на них теж відсутні

уже присутні

-Star-Lord- 
Поважний учасник


З нами з: 09.08.18
Востаннє: 17.10.18
Повідомлень: 197

2018-10-05 13:13  
11FrYkT
Чи не могли б Ви, надати їх мені?

11FrYkT 
Модератор відео


З нами з: 20.02.11
Востаннє: 16.10.18
Повідомлень: 5079

2018-10-05 13:17  
-Star-Lord- написано:

11FrYkT
Чи не могли б Ви, надати їх мені?

https://toloka.to/t94281
є окремо

-Star-Lord- 
Поважний учасник


З нами з: 09.08.18
Востаннє: 17.10.18
Повідомлень: 197

2018-10-05 13:34  
Додав форсовані субтитри.
Ваш часовий пояс: GMT + 2 Години

Нова тема   Відповісти