Телефонна будка / Phone Booth (2002) AVC 2xUkr/Eng | Sub Eng

Нові коментарі

Нова тема   Відповісти
Автор Повідомлення
staf777 
Відео Гуртом - підтримка та поширення
Відео Гуртом - підтримка та поширення


З нами з: 16.11.16
Востаннє: 18.07.19
Повідомлень: 2667

2018-10-03 10:46  
Телефонна будка / Phone Booth (2002) AVC 2xUkr/Eng | Sub Eng



Жанр: жахи, трилер
Країна: США



Кінокомпанія: Fox 2000 Pictures, Zucker/Netter Productions
Режисер: Джоель Шумахер / Joel Schumacher
Актори: Колін Фаррелл / Colin Farrell, Кіфер Сазерленд / Kiefer Sutherland, Форест Вайтакер / Forest Whitaker, Рада Мітчел / Radha Mitchell, Кеті Голмс / Katie Holmes, Паула Джей Паркер / Paula Jai Parker, Аріан Варінг Еш / Arian Waring Ash, Тіа Тексада / Tia Texada, Джон Енос ІІІ / John Enos III, Річард Т. Джонс / Richard T. Jones, Кейт Ноббс / Keith Nobbs, Делл Юнт / Dell Yount, Джеймс МакДональд / James MacDonald, Джош Пайс / Josh Pais, Йорго Костянтин / Yorgo Constantine

Сюжет:
Один телефонний дзвінок може змінити все життя людини або навіть обірвати його. Герой фільму Стью Шеферд стає полоненим телефонної будки.
Що ви зробите, якщо почуєте, як в телефонній будці задзвонив телефон? Швидше за все, інстинктивно піднімете слухавку, хоча чудово знаєте, що хтось просто помилився номером. Ось і Стью здається, що на дзвінок треба обов'язково відповісти, а в результаті він виявляється втягнутим в жахливу гру. «Тільки поклади трубку, і ти - труп», - говорить йому невидимий співбесідник.


Тривалість: 01:21:00
Якість: AVC
Відео:
кодек:
розмір кадру: 1024 x 432
бітрейт: 3500 кб/с

Аудіо # 1:
мова: українська
переклад: професійний дубльований
кодек: 2.0
бітрейт: 192 кб/с

Аудіо # 2:
мова: українська
переклад: багатоголосий закадровий
кодек: 2.0
бітрейт: 192 кб/с

Аудіо # 3:
мова: англійська
переклад: оригінал
кодек: 5.1
бітрейт: 448 кб/с

Субтитри:
мова: англійська
тип: програмні (м'які)
формат: *.srt
Скріншоти







MI
General
Unique ID : 338233108718592761172233610559875990025 (0xFE7553C51C885D9ADEE813DC46004209)
Complete name : N:\Phone Booth (2002) AVC [2xUKR_ENG] [Hurtom].
Format :
Format version : Version 4 / Version 2
File size : 2.42 GiB
Duration : 1 h 21 min
Overall bit rate : 4 270 kb/s
Movie name : Phone Booth (2002) AVC [2xUKR_ENG] [Hurtom]
Encoded date : UTC 2018-10-03 18:49:47
Writing application : v24.0.0 ('Beyond The Pale') 64-bit
Writing library : libebml v1.3.6 + v1.4.9
Cover : Yes
Attachments : cover.jpg

Video
ID : 1
Format : AVC
Format/Info : Advanced Video Codec
Format profile : [email protected]
Format settings : CABAC / 10 Ref Frames
Format settings, CABAC : Yes
Format settings, ReFrames : 10 frames
Codec ID : V_MPEG4/ISO/AVC
Duration : 1 h 21 min
Bit rate : 3 500 kb/s
Width : 1 024 pixels
Height : 432 pixels
Display aspect ratio : 2.40:1
Frame rate mode : Constant
Frame rate : 23.976 (24000/1001) FPS
Color space : YUV
Chroma subsampling : 4:2:0
Bit depth : 8 bits
Scan type : Progressive
Bits/(Pixel*Frame) : 0.330
Stream size : 1.98 GiB (82%)
Title : Phone Booth (2002) AVC
Writing library : core 130 r2273 b3065e6
Encoding settings : cabac=1 / ref=10 / deblock=1:-3:-3 / analyse=0x3:0x133 / me=umh / subme=10 / psy=1 / psy_rd=1.00:0.10 / mixed_ref=1 / me_range=48 / chroma_me=1 / trellis=2 / 8x8dct=1 / cqm=0 / deadzone=21,11 / fast_pskip=0 / chroma_qp_offset=-3 / threads=6 / lookahead_threads=1 / sliced_threads=0 / nr=0 / decimate=1 / interlaced=0 / bluray_compat=0 / constrained_intra=0 / bframes=5 / b_pyramid=2 / b_adapt=2 / b_bias=0 / direct=3 / weightb=1 / open_gop=0 / weightp=2 / keyint=240 / keyint_min=22 / scenecut=40 / intra_refresh=0 / rc_lookahead=40 / rc=2pass / mbtree=1 / bitrate=3500 / ratetol=1.0 / qcomp=0.60 / qpmin=10 / qpmax=51 / qpstep=4 / cplxblur=20.0 / qblur=0.5 / ip_ratio=1.40 / aq=1:1.00
Language : English
Default : Yes
Forced : No

Audio #1
ID : 2
Format : AC-3
Format/Info : Audio Coding 3
Codec ID : A_AC3
Duration : 1 h 21 min
Bit rate mode : Constant
Bit rate : 192 kb/s
Channel(s) : 2 channels
Channel positions : Front: L R
Sampling rate : 48.0 kHz
Frame rate : 31.250 FPS (1536 SPF)
Bit depth : 16 bits
Compression mode : Lossy
Stream size : 111 MiB (4%)
Title : [UA-DUB-ICTV]
Language : Ukrainian
Service kind : Complete Main
Default : Yes
Forced : Yes

Audio #2
ID : 3
Format : AC-3
Format/Info : Audio Coding 3
Codec ID : A_AC3
Duration : 1 h 21 min
Bit rate mode : Constant
Bit rate : 192 kb/s
Channel(s) : 2 channels
Channel positions : Front: L R
Sampling rate : 48.0 kHz
Frame rate : 31.250 FPS (1536 SPF)
Bit depth : 16 bits
Compression mode : Lossy
Stream size : 111 MiB (4%)
Title : [UA-MVO-2+2]
Language : Ukrainian
Service kind : Complete Main
Default : No
Forced : No

Audio #3
ID : 4
Format : AC-3
Format/Info : Audio Coding 3
Codec ID : A_AC3
Duration : 1 h 21 min
Bit rate mode : Constant
Bit rate : 384 kb/s
Channel(s) : 6 channels
Channel positions : Front: L C R, Side: L R, LFE
Sampling rate : 48.0 kHz
Frame rate : 31.250 FPS (1536 SPF)
Bit depth : 16 bits
Compression mode : Lossy
Stream size : 222 MiB (9%)
Language : English
Service kind : Complete Main
Default : No
Forced : No

Text
ID : 5
Format : UTF-8
Codec ID : S_TEXT/UTF8
Codec ID/Info : UTF-8 Plain Text
Duration : 1 h 12 min
Bit rate : 108 b/s
Count of elements : 1255
Stream size : 57.8 KiB (0%)
Language : English
Default : No
Forced : No
Подяка: за звукові доріжки пану karvai0
Джерело: &
Особиста оцінка: 0 - не дивився
Телефонна будка / Phone Booth (2002) AVC 2xUkr/Eng | Sub Eng

Телефонна будка / Phone Booth (2002) AVC 2xUkr/Eng | Sub Eng


Срібний реліз (на рейтинг впливає 50% завантаженого)
 Трекер:    Зареєстрований   

Завантажити / скачати фільм українською



відео для новачків



 Зареєстрований:   2018-10-03 22:08
 Розмір:   2.42 GB 
 Оцінка фільму:   9.4/10 (Голосів: 12)
   
Інші релізи
bot 
робот


З нами з: 30.09.07
Востаннє: 26.05.05
Повідомлень: 21628

2018-10-03 10:49  
Тему перенесено з Фільми до форуму Анонси релізів


staf777

akon111 
Відео Гуртом - запис з ТБ
Відео Гуртом - запис з ТБ


З нами з: 28.08.09
Востаннє: 17.07.19
Повідомлень: 1264

2018-10-03 14:39  
staf777 написано:

Аудіо # 1:
мова: українська
переклад: багатоголосий закадровий
кодек: 2.0
бітрейт: 192 кб/с


професійний дубльований

staf777 
Відео Гуртом - підтримка та поширення
Відео Гуртом - підтримка та поширення


З нами з: 16.11.16
Востаннє: 18.07.19
Повідомлень: 2667

2018-10-03 21:11  
akon111
Дякую провтикав при оформленні

Додано через 45 хвилин 36 секунд:

Що за глюк не працює кнопка рейтинг IMDb

bot 
робот


З нами з: 30.09.07
Востаннє: 26.05.05
Повідомлень: 21628

2018-10-03 22:07  
Тему перенесено з Анонси релізів до форуму Фільми


staf777

ekvilibrium 
Новенький


З нами з: 03.02.11
Востаннє: 14.07.19
Повідомлень: 5

2018-10-10 21:44  
шикарний фільм, але все якось дуже просто=)
Ваш часовий пояс: GMT + 2 Години

Нова тема   Відповісти