Чотири Різдва / Four Christmases (2008) AVC 2xUkr/Eng | Sub Eng

Нові коментарі

Нова тема   Відповісти
Автор Повідомлення
staf777 
Відео Гуртом - підтримка та поширення
Відео Гуртом - підтримка та поширення


З нами з: 16.11.16
Востаннє: 24.04.19
Повідомлень: 2284

2018-10-03 10:27  
Чотири Різдва / Four Christmases (2008) AVC 2xUkr/Eng | Sub Eng

Чотири Різдва / Four Christmases (2008) AVC 2xUkr/Eng | Sub Eng
Оригінальна обкладинка

Жанр: комедія
Країна: Німеччина, США



Кінокомпанія: Birnbaum
Режисер: Сет Гордон
Актори: Вінс Вон, Різ Візерспун, Роберт Дювалл, Сіссі Спейсек, Джон Войт, Джон Фавро, Мері Стінберген, Двайт Йокам, Тім МакГроу, Крістін Ченовет, Кеті Міксон

Сюжет:
Закохана пара, Бред і Кейт, намагається зустріти Різдво разом зі своїми батьками, але справа ускладнюється тим, що і його, і її батьки в розлученні, тому їм потрібно за один день встигнути в чотири різні місця.


Тривалість: 01:28:32
Якість: AVC
Відео:
кодек:
розмір кадру: 1024x576
бітрейт: 3000 кб/с

Аудіо # 1:
мова: українська
переклад: професійний дубльований
кодек: 5.1
бітрейт: 448 кб/с

Аудіо # 2:
мова: українська
переклад: багатоголосий закадровий
кодек: 2.0
бітрейт: 192 кб/с

Аудіо # 3:
мова: англійська
переклад: оригінал
кодек: 5.1
бітрейт: 448 кб/с

Субтитри:
мова: англійська
тип: програмні (м'які)
формат: *.srt
Info
General
Unique ID : 314727645830290802879365811426502084591 (0xECC656F967784AEB7033552EE70B87EF)
Complete name : N:\Four Christmases (2008) AVC [2xUKR_ENG] [Hurtom].
Format :
Format version : Version 4 / Version 2
File size : 2.53 GiB
Duration : 1 h 28 min
Overall bit rate : 4 087 kb/s
Movie name : Four Christmases (2008) AVC [2xUKR_ENG] [Hurtom]
Encoded date : UTC 2018-10-03 14:46:01
Writing application : v24.0.0 ('Beyond The Pale') 64-bit
Writing library : libebml v1.3.6 + v1.4.9
Cover : Yes
Attachments : cover.jpg

Video
ID : 1
Format : AVC
Format/Info : Advanced Video Codec
Format profile : [email protected]
Format settings : CABAC / 8 Ref Frames
Format settings, CABAC : Yes
Format settings, ReFrames : 8 frames
Codec ID : V_MPEG4/ISO/AVC
Duration : 1 h 28 min
Bit rate : 3 000 kb/s
Width : 1 024 pixels
Height : 576 pixels
Display aspect ratio : 16:9
Frame rate mode : Constant
Frame rate : 23.976 (24000/1001) FPS
Color space : YUV
Chroma subsampling : 4:2:0
Bit depth : 8 bits
Scan type : Progressive
Bits/(Pixel*Frame) : 0.212
Stream size : 1.85 GiB (73%)
Title : Rip by Enigma-Vladislav71
Writing library : core 125 r2200 999b753
Encoding settings : cabac=1 / ref=8 / deblock=1:-2:-2 / analyse=0x3:0x133 / me=umh / subme=11 / psy=1 / psy_rd=1.00:0.00 / mixed_ref=1 / me_range=48 / chroma_me=1 / trellis=2 / 8x8dct=1 / cqm=0 / deadzone=21,11 / fast_pskip=0 / chroma_qp_offset=-2 / threads=3 / lookahead_threads=1 / sliced_threads=0 / nr=0 / decimate=0 / interlaced=0 / bluray_compat=0 / constrained_intra=0 / bframes=8 / b_pyramid=2 / b_adapt=2 / b_bias=0 / direct=3 / weightb=1 / open_gop=0 / weightp=2 / keyint=230 / keyint_min=22 / scenecut=40 / intra_refresh=0 / rc=2pass / mbtree=0 / bitrate=3000 / ratetol=1.0 / qcomp=0.60 / qpmin=10 / qpmax=51 / qpstep=4 / cplxblur=20.0 / qblur=0.5 / ip_ratio=1.40 / pb_ratio=1.30 / aq=2:1.00
Language : English
Default : No
Forced : No

Audio #1
ID : 2
Format : AC-3
Format/Info : Audio Coding 3
Codec ID : A_AC3
Duration : 1 h 28 min
Bit rate mode : Constant
Bit rate : 448 kb/s
Channel(s) : 6 channels
Channel positions : Front: L C R, Side: L R, LFE
Sampling rate : 48.0 kHz
Frame rate : 31.250 FPS (1536 SPF)
Bit depth : 16 bits
Compression mode : Lossy
Stream size : 284 MiB (11%)
Title : [UA-DUB]
Language : Ukrainian
Service kind : Complete Main
Default : Yes
Forced : Yes

Audio #2
ID : 3
Format : AC-3
Format/Info : Audio Coding 3
Codec ID : A_AC3
Duration : 1 h 28 min
Bit rate mode : Constant
Bit rate : 192 kb/s
Channel(s) : 2 channels
Channel positions : Front: L R
Sampling rate : 48.0 kHz
Frame rate : 31.250 FPS (1536 SPF)
Bit depth : 16 bits
Compression mode : Lossy
Stream size : 122 MiB (5%)
Title : [UA-MVO]
Language : Ukrainian
Service kind : Complete Main
Default : No
Forced : No

Audio #3
ID : 4
Format : AC-3
Format/Info : Audio Coding 3
Codec ID : A_AC3
Duration : 1 h 28 min
Bit rate mode : Constant
Bit rate : 448 kb/s
Channel(s) : 6 channels
Channel positions : Front: L C R, Side: L R, LFE
Sampling rate : 48.0 kHz
Frame rate : 31.250 FPS (1536 SPF)
Bit depth : 16 bits
Compression mode : Lossy
Stream size : 284 MiB (11%)
Language : English
Service kind : Complete Main
Default : No
Forced : No

Text
ID : 5
Format : UTF-8
Codec ID : S_TEXT/UTF8
Codec ID/Info : UTF-8 Plain Text
Duration : 1 h 19 min
Bit rate : 96 b/s
Count of elements : 1431
Stream size : 56.4 KiB (0%)
Language : English
Default : No
Forced : No

Menu
00:00:00.000 : en:Chapter 01
00:03:50.605 : en:Chapter 02
00:06:37.939 : en:Chapter 03
00:10:55.446 : en:Chapter 04
00:14:13.227 : en:Chapter 05
00:18:20.057 : en:Chapter 06
00:22:27.137 : en:Chapter 07
00:26:38.430 : en:Chapter 08
00:31:33.349 : en:Chapter 09
00:35:09.774 : en:Chapter 10
00:38:00.778 : en:Chapter 11
00:41:37.369 : en:Chapter 12
00:45:11.083 : en:Chapter 13
00:47:13.747 : en:Chapter 14
00:50:45.167 : en:Chapter 15
00:54:38.984 : en:Chapter 16
00:58:45.897 : en:Chapter 17
01:03:44.028 : en:Chapter 18
01:07:34.842 : en:Chapter 19
01:12:30.596 : en:Chapter 20
01:15:47.793 : en:Chapter 21
01:18:27.536 : en:Chapter 22
01:20:05.008 : en:Chapter 23
Скріншоти





Перша доріжка AngryBirdsUA
Друга доріжка Arsenfpu
Джерело: &
Особиста оцінка: 0 - не дивився
Чотири Різдва / Four Christmases (2008) AVC 2xUkr/Eng | Sub Eng

Чотири Різдва / Four Christmases (2008) AVC 2xUkr/Eng | Sub Eng


 Трекер:    Зареєстрований   

Завантажити / скачати фільм українською



відео для новачків



 Зареєстрований:   2018-10-03 18:13
 Розмір:   2.53 GB 
 Оцінка фільму:   10/10 (Голосів: 7)
   
Інші релізи
bot 
робот


З нами з: 30.09.07
Востаннє: 26.05.05
Повідомлень: 21239

2018-10-03 18:12  
Тему перенесено з Анонси релізів до форуму Фільми


staf777

Ваш часовий пояс: GMT + 2 Години

Нова тема   Відповісти