Еверест / Everest (2015) AVC Ukr/Eng | Sub Ukr/Eng

Нові коментарі

Нова тема   Відповісти
Автор Повідомлення
staf777 
Відео Гуртом - підтримка та поширення
Відео Гуртом - підтримка та поширення


З нами з: 16.11.16
Востаннє: 13.11.19
Повідомлень: 3017

2018-10-03 08:09  
Еверест / Everest (2015) AVC Ukr/Eng | Sub Ukr/Eng

Еверест / Everest (2015) AVC Ukr/Eng | Sub Ukr/Eng


Жанр: пригодницький, біографічний, драма
Країна: Велика Британія, США, Ісландія



Кінокомпанія: Working Title Films, RVK Studios, Walden Media
Режисер: Бальтасар Кормакур
Актори: Джейсон Кларк, Джош Бролін, Джейк Джилленгал, Сем Вортінґтон, Джон Гоукс, Майкл Келлі, Інґвар Еґґерт Сіґюрдссон, Кіра Найтліі, Емілі Вотсон, Робін Райт

Сюжет:
Досвідчений інструктор Роб Голл, зібравши групу з кращих альпіністів, збирається здійснити сходження на найвищу вершину планети. Всі ці люди сповнені мужності і відваги і вони не зупиняться ні перед чим, поки не піднімуться на вершину Евересту. Але навіть якщо ця гора підкориться їм, чи зможуть вони повернутися назад живими і неушкодженими?


Тривалість: 02:01:11
Якість: AVC
Відео:
кодек:
розмір кадру: 1152*484
бітрейт: 2543 кб/с

Аудіо # 1:
мова: українська
переклад: професійний дубльований
кодек: 2.0
бітрейт: 192 кб/с

Аудіо # 2:
мова: англійська
переклад: оригінал
кодек: 5.1
бітрейт: 448 кб/с

Субтитри: (Forced, Full)
мова: українська
тип: програмні (м'які)
формат: *.srt

Субтитри:
мова: англійська
тип: програмні (м'які)
формат: *.srt
Скріншоти




MI
General
Unique ID : 241251094894009723984908391925590033945 (0xB57F4551A88B9218B008AFF238E08619)
Complete name : N:\Everest (2015) AVC [UKR_ENG] [Hurtom].
Format :
Format version : Version 4 / Version 2
File size : 2.70 GiB
Duration : 2 h 1 min
Overall bit rate : 3 186 kb/s
Movie name : Everest (2015) AVC [UKR_ENG] [Hurtom]
Encoded date : UTC 2018-10-03 05:47:53
Writing application : v24.0.0 ('Beyond The Pale') 64-bit
Writing library : libebml v1.3.6 + v1.4.9
Cover : Yes
Attachments : cover.jpg

Video
ID : 1
Format : AVC
Format/Info : Advanced Video Codec
Format profile : [email protected]
Format settings : CABAC / 14 Ref Frames
Format settings, CABAC : Yes
Format settings, ReFrames : 14 frames
Codec ID : V_MPEG4/ISO/AVC
Duration : 2 h 1 min
Bit rate : 2 543 kb/s
Width : 1 152 pixels
Height : 484 pixels
Display aspect ratio : 2.40:1
Frame rate mode : Constant
Frame rate : 23.976 (24000/1001) FPS
Color space : YUV
Chroma subsampling : 4:2:0
Bit depth : 8 bits
Scan type : Progressive
Bits/(Pixel*Frame) : 0.190
Stream size : 2.15 GiB (80%)
Title : Everest (2015) (New-Team) (Rip by Stalker oK)
Writing library : core 148 r2638 7599210
Encoding settings : cabac=1 / ref=14 / deblock=1:-3:-3 / analyse=0x3:0x133 / me=umh / subme=11 / psy=1 / psy_rd=1.00:0.10 / mixed_ref=1 / me_range=48 / chroma_me=1 / trellis=2 / 8x8dct=1 / cqm=0 / deadzone=21,11 / fast_pskip=0 / chroma_qp_offset=-3 / threads=12 / lookahead_threads=3 / sliced_threads=0 / nr=0 / decimate=0 / interlaced=0 / bluray_compat=0 / constrained_intra=0 / bframes=15 / b_pyramid=2 / b_adapt=2 / b_bias=0 / direct=3 / weightb=1 / open_gop=0 / weightp=2 / keyint=240 / keyint_min=23 / scenecut=40 / intra_refresh=0 / rc_lookahead=60 / rc=2pass / mbtree=0 / bitrate=2543 / ratetol=1.0 / qcomp=0.70 / qpmin=0 / qpmax=69 / qpstep=4 / cplxblur=20.0 / qblur=0.5 / vbv_maxrate=50000 / vbv_bufsize=62500 / nal_hrd=none / filler=0 / ip_ratio=1.40 / pb_ratio=1.30 / aq=3:0.90
Default : Yes
Forced : No

Audio #1
ID : 2
Format : AC-3
Format/Info : Audio Coding 3
Codec ID : A_AC3
Duration : 2 h 1 min
Bit rate mode : Constant
Bit rate : 192 kb/s
Channel(s) : 2 channels
Channel positions : Front: L R
Sampling rate : 48.0 kHz
Frame rate : 31.250 FPS (1536 SPF)
Bit depth : 16 bits
Compression mode : Lossy
Stream size : 166 MiB (6%)
Title : [UA-DUB]
Language : Ukrainian
Service kind : Complete Main
Default : Yes
Forced : Yes

Audio #2
ID : 3
Format : AC-3
Format/Info : Audio Coding 3
Codec ID : A_AC3
Duration : 2 h 1 min
Bit rate mode : Constant
Bit rate : 448 kb/s
Channel(s) : 6 channels
Channel positions : Front: L C R, Side: L R, LFE
Sampling rate : 48.0 kHz
Frame rate : 31.250 FPS (1536 SPF)
Bit depth : 16 bits
Compression mode : Lossy
Stream size : 388 MiB (14%)
Language : English
Service kind : Complete Main
Default : No
Forced : No

Text #1
ID : 4
Format : UTF-8
Codec ID : S_TEXT/UTF8
Codec ID/Info : UTF-8 Plain Text
Duration : 1 h 59 min
Bit rate : 2 b/s
Count of elements : 56
Stream size : 2.07 KiB (0%)
Title : Forced
Language : Ukrainian
Default : Yes
Forced : Yes

Text #2
ID : 5
Format : UTF-8
Codec ID : S_TEXT/UTF8
Codec ID/Info : UTF-8 Plain Text
Duration : 1 h 55 min
Bit rate : 82 b/s
Count of elements : 1610
Stream size : 69.8 KiB (0%)
Title : iTunes
Language : Ukrainian
Default : No
Forced : No

Text #3
ID : 6
Format : UTF-8
Codec ID : S_TEXT/UTF8
Codec ID/Info : UTF-8 Plain Text
Duration : 1 h 50 min
Bit rate : 59 b/s
Count of elements : 1698
Stream size : 47.9 KiB (0%)
Language : English
Default : No
Forced : No

Text #4
ID : 7
Format : UTF-8
Codec ID : S_TEXT/UTF8
Codec ID/Info : UTF-8 Plain Text
Duration : 1 h 50 min
Bit rate : 61 b/s
Count of elements : 1806
Stream size : 49.9 KiB (0%)
Title : SDH, iTunes
Language : English
Default : No
Forced : No

Menu
00:00:00.000 : en:Chapter 1
00:05:12.145 : en:Chapter 2
00:09:36.075 : en:Chapter 3
00:15:13.162 : en:Chapter 4
00:20:58.423 : en:Chapter 5
00:26:30.714 : en:Chapter 6
00:33:15.118 : en:Chapter 7
00:40:23.754 : en:Chapter 8
00:47:23.382 : en:Chapter 9
00:52:14.589 : en:Chapter 10
00:57:49.174 : en:Chapter 11
01:01:54.794 : en:Chapter 12
01:07:22.079 : en:Chapter 13
01:15:40.577 : en:Chapter 14
01:21:03.900 : en:Chapter 15
01:26:59.589 : en:Chapter 16
01:32:39.136 : en:Chapter 17
01:41:20.449 : en:Chapter 18
01:46:47.651 : en:Chapter 19
01:54:06.464 : en:Chapter 20
Джерело: &
Особиста оцінка: 0 - не дивився
Еверест / Everest (2015) AVC Ukr/Eng | Sub Ukr/Eng

Еверест / Everest (2015) AVC Ukr/Eng | Sub Ukr/Eng


 Трекер:    Зареєстрований   

Завантажити / скачати фільм українською



відео для новачків



 Зареєстрований:   2018-10-03 08:09
 Розмір:   2.7 GB 
 Оцінка фільму:   9.2/10 (Голосів: 21)
   
Інші релізи
   Еверест / Everest (2015) Remux 1080p Ukr/Eng | Sub Ukr/Eng kryk-v.ya.  3 / 0   25.21 GB   2019-07-04 11:27 
   Еверест / Everest (2015) 1080p 3D Ukr/Eng | Sub Ukr/Eng [Half OverUnder] -VipeR-  2 / 1   7.8 GB   2016-01-08 11:39 
   Еверест / Everest (2015) Ukr/Eng | Sub Ukr/Eng Covenant  3 / 0   2.18 GB   2015-12-18 21:59 
   Еверест / Everest (2015) 1080p Ukr/Eng | Sub Ukr/Eng 11FrYkT  2 / 0   11.07 GB   2015-12-17 17:53 
   Еверест / Everest (2015) 720p Ukr/Eng | Sub Ukr/Eng 11FrYkT  11 / 0   5.03 GB   2015-12-17 17:44 
   Еверест / Everest (2015) Gelios  13 / 0   1.45 GB   2015-12-16 19:58 
olimpian1 
Поважний учасник


З нами з: 19.10.13
Востаннє: 12.11.19
Повідомлень: 203

2018-10-03 14:17  
Фільм про мужність і силу людського духу. Краєвиди гір зачаровують. Дивитись однозначно.
Влодко G 
Поважний учасник


З нами з: 12.01.08
Востаннє: 10.11.19
Повідомлень: 152

2018-10-03 18:26  
Гарний фільм. Місцями "мороз" по шкірі пробігав - такий собі "ефект присутності" .
gunnarukr 
VIP


З нами з: 07.01.15
Востаннє: 11.11.19
Повідомлень: 808

2018-10-09 13:45  
Гарне кіно! Атмосферне!
Один з небагатьох фільмів, заснованих на реальних подіях, шо спонукав після перегляду заґуґлити на дану тематику.
Правда подвиг Букрєєва,на мою думку, в картині змалювали слабувато. Сильна духом була людина!

BatenkoBMW 
Частий відвідувач


З нами з: 23.12.12
Востаннє: 29.10.19
Повідомлень: 43

2018-12-07 18:11  
gunnarukr
Я теж, до речі, після перегляду одразу почала шукати інформацію про Еверест.

Ваш часовий пояс: GMT + 2 Години

Нова тема   Відповісти