Цибульні новини / The Onion Movie (2008) 1080p Ukr/Eng | Sub Eng

Нові коментарі

Нова тема   Відповісти
Автор Повідомлення
Anonymous 







2018-10-03 08:27  
Цибульні новини / The Onion Movie (2008) 1080p Ukr/Eng | Sub Eng

Цибульні новини / The Onion Movie (2008) 1080p Ukr/Eng | Sub Eng


Жанр: комедія
Країна: США



Кінокомпанія: Regency Enterprises, Fox Searchlight Pictures, 3 Arts Entertainment, New Regency Productions, Zucker/Netter Productions
Режисер: Том Кунц / Tom Kuntz, Майк Магвайр / Mike Maguire
Актори: Деніель Чакон / Daniel Chacon, Кен Такемото / Ken Takemoto, Стівен Сігал / Steven Seagal, Дон МакМанус / Don McManus, Кайт Фуглей / Kate Fuglei, Абіґейл Мавіті / Abigail Mavity, Рейд Уівер / Reid Weaver, Браян Пауелл / Brian Powell, Адель Роббінс / Adele Robbins, Джейсон Л. Міллер / Jason L. Miller, Брендон Берг / Brendon Baerg, Лен Каріу / Len Cariou, Ларісса Ласкін / Larissa Laskin, Скотт Клейс / Scott Klace, Барбара Пілавін / Barbara Pilavin

Сюжет:
Фільм знятий у вигляді новин, які транслює не існуюча компанія The ONION. Кожна новина, показана в гумористичному ключі, присвячена якій-небудь проблемі американської культури і суспільства. Тут висміяні практично всі проблеми, що стосуються тероризму, наркотиків, расизму, вільного продажу зброї, безробіття, проблеми з ожирінням і курінням і багато інших. Дісталося по повній зіркам кіно, шоу-бізнесу, спорту...


Тривалість: 01:26:07
Якість: 1080p
Відео:
кодек:
розмір кадру: 1920х1080
бітрейт: 13 Мб/с

Аудіо # 1:
мова: українська
переклад: двоголосий закадровий
кодек: 2.0
бітрейт: 192 кб/с

Аудіо # 2:
мова: англійська
переклад: оригінал
кодек: E- 5.1
бітрейт: 640 кб/с

Субтитри:
мова: англійська
тип: програмні (м'які)
формат: *.srt
Info
General
Unique ID : 191277200525477818185449445812366330420 (0x8FE6A618DFED0C77B4F5EC1BDF65CA34)
Format :
Format version : Version 4 / Version 2
File size : 8.86 GiB
Duration : 1 h 29 min
Overall bit rate mode : Variable
Overall bit rate : 14.1 Mb/s
Encoded date : UTC 2018-10-03 05:19:56
Writing application : v6.1.0 ('Old Devil') built on Mar 4 2013 09:10:42
Writing library : libebml v1.3.0 + v1.4.0

Video
ID : 1
Format : AVC
Format/Info : Advanced Video Codec
Format profile : [email protected]
Format settings : CABAC / 4 Ref Frames
Format settings, CABAC : Yes
Format settings, ReFrames : 4 frames
Codec ID : V_MPEG4/ISO/AVC
Duration : 1 h 29 min
Bit rate mode : Variable
Bit rate : 13.0 Mb/s
Maximum bit rate : 15.0 Mb/s
Width : 1 920 pixels
Height : 1 080 pixels
Display aspect ratio : 16:9
Frame rate mode : Constant
Frame rate : 23.976 (24000/1001) FPS
Color space : YUV
Chroma subsampling : 4:2:0
Bit depth : 8 bits
Scan type : Progressive
Bits/(Pixel*Frame) : 0.262
Stream size : 8.16 GiB (92%)
Writing library : core 148 r2623 d5b2374
Encoding settings : cabac=1 / ref=4 / deblock=1:-1:-1 / analyse=0x3:0x133 / me=umh / subme=9 / psy=1 / psy_rd=1.00:0.15 / mixed_ref=1 / me_range=24 / chroma_me=1 / trellis=2 / 8x8dct=1 / cqm=0 / deadzone=21,11 / fast_pskip=1 / chroma_qp_offset=-3 / threads=34 / lookahead_threads=5 / sliced_threads=0 / nr=150 / decimate=1 / interlaced=0 / bluray_compat=0 / constrained_intra=0 / bframes=8 / b_pyramid=2 / b_adapt=2 / b_bias=0 / direct=3 / weightb=1 / open_gop=0 / weightp=2 / keyint=120 / keyint_min=61 / scenecut=0 / intra_refresh=0 / rc_lookahead=120 / rc=crf / mbtree=1 / crf=18.0 / qcomp=0.60 / qpmin=0 / qpmax=69 / qpstep=4 / vbv_maxrate=15000 / vbv_bufsize=31250 / crf_max=0.0 / nal_hrd=vbr / filler=0 / ip_ratio=1.40 / aq=3:1.00
Default : Yes
Forced : No
Color range : Limited
Color primaries : BT.709
Transfer characteristics : BT.709
Matrix coefficients : BT.709
Statistics Tags Issue : v16.0.0 ('Protest') 64-bit 2017-10-23 09:40:31 / v6.1.0 ('Old Devil') built on Mar 4 2013 09:10:42 2018-10-03 05:19:56
FromStats_BitRate : 13290193
FromStats_Duration : 01:29:47.591000000
FromStats_FrameCount : 129173
FromStats_StreamSize : 8950266047

Audio #1
ID : 2
Format : AC-3
Format/Info : Audio Coding 3
Codec ID : A_AC3
Duration : 1 h 29 min
Bit rate mode : Constant
Bit rate : 192 kb/s
Channel(s) : 2 channels
Channel positions : Front: L R
Sampling rate : 48.0 kHz
Frame rate : 31.250 FPS (1536 SPF)
Bit depth : 16 bits
Compression mode : Lossy
Stream size : 123 MiB (1%)
Title : UKR (1+1)
Language : Ukrainian
Service kind : Complete Main
Default : Yes
Forced : Yes

Audio #2
ID : 3
Format : E-AC-3
Format/Info : Enhanced Audio Coding 3
Codec ID : A_EAC3
Duration : 1 h 29 min
Bit rate mode : Constant
Bit rate : 640 kb/s
Channel(s) : 6 channels
Channel positions : Front: L C R, Side: L R, LFE
Sampling rate : 48.0 kHz
Frame rate : 187.500 FPS (256 SPF)
Compression mode : Lossy
Stream size : 411 MiB (5%)
Language : English
Service kind : Complete Main
Default : No
Forced : No
Statistics Tags Issue : v16.0.0 ('Protest') 64-bit 2017-10-23 09:40:31 / v6.1.0 ('Old Devil') built on Mar 4 2013 09:10:42 2018-10-03 05:19:56
FromStats_BitRate : 640000
FromStats_Duration : 01:29:47.552000000
FromStats_FrameCount : 168361
FromStats_StreamSize : 431004160

Text
ID : 4
Format : UTF-8
Codec ID : S_TEXT/UTF8
Codec ID/Info : UTF-8 Plain Text
Language : English
Default : No
Forced : No
Statistics Tags Issue : v16.0.0 ('Protest') 64-bit 2017-10-23 09:40:31 / v6.1.0 ('Old Devil') built on Mar 4 2013 09:10:42 2018-10-03 05:19:56
FromStats_BitRate : 83
FromStats_Duration : 01:29:44.480000000
FromStats_FrameCount : 1676
FromStats_StreamSize : 56240
Скріншоти










За українську доріжку подяка п. karvai0
За український постер подяка п. bober-mober
Особиста подяка пану denixx за надану матеріальну допомогу на підтримку цього і майбутніх релізів.
Джерело:


 Трекер:    Зареєстрований   

Завантажити / скачати фільм українською



відео для новачків



 Зареєстрований:   2018-10-03 08:27
 Розмір:   8.86 GB 
 Оцінка фільму:   9.1/10 (Голосів: 8)
   
Інші релізи
Ваш часовий пояс: GMT + 2 Години

Нова тема   Відповісти