Найкраща пропозиція (The Best Offer) / La migliore offerta (2013) 720p 2xUkr/Eng | Sub Eng

Нові коментарі

Нова тема   Відповісти
Автор Повідомлення
Anonymous 







2018-10-03 06:32  
Найкраща пропозиція / The Best Offer / La migliore offerta (2013) 720p 2xUkr/Eng | Sub Eng

Найкраща пропозиція (The Best Offer) / La migliore offerta (2013) 720p 2xUkr/Eng | Sub Eng


Жанр: кримінальний, драма, романтичний
Країна: Італія



Кінокомпанія: Paco Cinematografica, Warner Bros., Business Location Sudtirol Alto Adige
Режисер: Джузеппе Торнаторе / Giuseppe Tornatore
Актори: Джеффрі Раш / Geoffrey Rush, Джим Стерджесс / Jim Sturgess, Сільвія Хукс / Sylvia Hoeks, Дональд Сазерленд / Donald Sutherland, Філіп Джексон / Philip Jackson, Дермот Краулі / Dermot Crowley, Кіруна Стамелл / Kiruna Stamell, Лія Кебеде / Liya Kebede, Катерина Каподiлiста / Caterina Capodilista, Ґен Сето / Gen Seto

Сюжет:
Вергілій Олдман, керуючий директор провідного аукціонного будинку. У секретному залі своєї вілли, він зібрав сотні безцінних картин з різних епох. Одного разу таємнича жінка, що приховує свою особистість, просить продати його антикваріат її сім'ї. Але Олдман зацікавлений не тільки предметами старовини, його все більше зачаровує сама жінка ...


Тривалість: 02:10:58
Якість: 720p
Відео:
кодек:
розмір кадру: 1280х538
бітрейт: 4000 кб/с

Аудіо # 1:
мова: українська
переклад: багатоголосий закадровий
кодек: 2.0
бітрейт: 192 кб/с

Аудіо # 2:
мова: українська
переклад: багатоголосий закадровий
кодек: 5.1
бітрейт: 448 кб/с

Аудіо # 3:
мова: англійська
переклад: оригінал
кодек: 5.1
бітрейт: 1509 кб/с

Субтитри:
мова: англійська
тип: програмні (м'які)
формат: *.srt
Info
General
Unique ID : 187779939331556820241686826615121976590 (0x8D4519CEC6678B7287517B48F2451D0E)
Format :
Format version : Version 4 / Version 2
File size : 5.63 GiB
Duration : 2 h 10 min
Overall bit rate : 6 152 kb/s
Encoded date : UTC 2018-10-03 04:22:23
Writing application : v6.1.0 ('Old Devil') built on Mar 4 2013 09:10:42
Writing library : libebml v1.3.0 + v1.4.0

Video
ID : 1
Format : AVC
Format/Info : Advanced Video Codec
Format profile : [email protected]
Format settings : CABAC / 12 Ref Frames
Format settings, CABAC : Yes
Format settings, ReFrames : 12 frames
Codec ID : V_MPEG4/ISO/AVC
Duration : 2 h 10 min
Bit rate : 4 000 kb/s
Width : 1 280 pixels
Height : 538 pixels
Display aspect ratio : 2.40:1
Frame rate mode : Constant
Frame rate : 24.000 FPS
Color space : YUV
Chroma subsampling : 4:2:0
Bit depth : 8 bits
Scan type : Progressive
Bits/(Pixel*Frame) : 0.242
Stream size : 3.55 GiB (63%)
Writing library : core 133 r2334kMod a3ac64b
Encoding settings : cabac=1 / ref=12 / deblock=1:-3:-3 / analyse=0x3:0x133 / me=umh / subme=11 / psy=1 / fade_compensate=0.00 / psy_rd=1.10:0.10 / mixed_ref=1 / me_range=64 / chroma_me=1 / trellis=2 / 8x8dct=1 / cqm=0 / deadzone=21,11 / fast_pskip=0 / chroma_qp_offset=-3 / threads=12 / lookahead_threads=2 / sliced_threads=0 / nr=0 / decimate=0 / interlaced=0 / bluray_compat=0 / constrained_intra=0 / bframes=9 / b_pyramid=2 / b_adapt=2 / b_bias=0 / direct=3 / weightb=1 / open_gop=0 / weightp=2 / keyint=250 / keyint_min=24 / scenecut=40 / intra_refresh=0 / rc_lookahead=40 / rc=2pass / mbtree=0 / bitrate=4000 / ratetol=1.0 / qcomp=0.80 / qpmin=0 / qpmax=69 / qpstep=4 / cplxblur=20.0 / qblur=0.5 / vbv_maxrate=50000 / vbv_bufsize=62500 / nal_hrd=none / ip_ratio=1.30 / pb_ratio=1.20 / aq=1:0.70
Language : Italian
Default : Yes
Forced : No
Color range : Limited
Color primaries : BT.709
Transfer characteristics : BT.709
Matrix coefficients : BT.709

Audio #1
ID : 2
Format : AC-3
Format/Info : Audio Coding 3
Codec ID : A_AC3
Duration : 2 h 10 min
Bit rate mode : Constant
Bit rate : 192 kb/s
Channel(s) : 2 channels
Channel positions : Front: L R
Sampling rate : 48.0 kHz
Frame rate : 31.250 FPS (1536 SPF)
Bit depth : 16 bits
Compression mode : Lossy
Stream size : 180 MiB (3%)
Title : UKR (1+1)
Language : Ukrainian
Service kind : Complete Main
Default : Yes
Forced : Yes

Audio #2
ID : 3
Format : AC-3
Format/Info : Audio Coding 3
Codec ID : A_AC3
Duration : 2 h 10 min
Bit rate mode : Constant
Bit rate : 448 kb/s
Channel(s) : 6 channels
Channel positions : Front: L C R, Side: L R, LFE
Sampling rate : 48.0 kHz
Frame rate : 31.250 FPS (1536 SPF)
Bit depth : 16 bits
Compression mode : Lossy
Stream size : 420 MiB (7%)
Title : UKR (DVD)
Language : Ukrainian
Service kind : Complete Main
Default : No
Forced : No

Audio #3
ID : 4
Format :
Format/Info : Digital Theater Systems
Codec ID : A_DTS
Duration : 2 h 10 min
Bit rate mode : Constant
Bit rate : 1 509 kb/s
Channel(s) : 6 channels
Channel positions : Front: L C R, Side: L R, LFE
Sampling rate : 48.0 kHz
Frame rate : 93.750 FPS (512 SPF)
Bit depth : 16 bits
Compression mode : Lossy
Stream size : 1.38 GiB (25%)
Language : English
Default : No
Forced : No

Text
ID : 5
Format : UTF-8
Codec ID : S_TEXT/UTF8
Codec ID/Info : UTF-8 Plain Text
Title : English
Language : English
Default : No
Forced : No

Menu
00:00:00.000 : en:00:00:00.000
00:08:59.875 : en:00:08:59.875
00:16:33.542 : en:00:16:33.542
00:32:53.167 : en:00:32:53.167
00:48:00.500 : en:00:48:00.500
00:53:51.500 : en:00:53:51.500
01:01:55.000 : en:01:01:55.000
01:11:45.833 : en:01:11:45.833
01:24:45.333 : en:01:24:45.333
01:34:51.708 : en:01:34:51.708
01:40:27.000 : en:01:40:27.000
01:57:58.667 : en:01:57:58.667
Скріншоти








За доріжку №1 подяка п.: OlegCeana, xslim, karvai0
Особиста подяка пану denixx за надану матеріальну допомогу на підтримку цього і майбутніх релізів.
Джерело:


 Трекер:    Зареєстрований   

Завантажити / скачати фільм українською



відео для новачків



 Зареєстрований:   2018-10-03 06:32
 Розмір:   5.63 GB 
 Оцінка фільму:   9.9/10 (Голосів: 8)
   
alexus255 
Новенький


З нами з: 06.04.17
Востаннє: 17.12.18
Повідомлень: 9

2018-10-11 22:57  
Вкрай рекомендую. Цікавий, життєвий, місцями несподіваний.
Ваш часовий пояс: GMT + 2 Години

Нова тема   Відповісти