Персі Джексон та Викрадач блискавок / Percy Jackson & the Olympians: The Lightning Thief (2010) 1080p Ukr / Eng | Sub Ukr / Eng

Нові коментарі

Нова тема   Відповісти
Автор Повідомлення
staf777 
Попереджень: 1
Попереджень: 1 


З нами з: 16.11.16
Востаннє: 19.12.18
Повідомлень: 1940

2018-10-02 21:58  
Персі Джексон та Викрадач блискавок / Percy Jackson & the Olympians: The Lightning Thief (2010) 1080p Ukr / Eng | Sub Ukr / Eng

Персі Джексон та Викрадач блискавок / Percy Jackson & the Olympians: The Lightning Thief (2010) 1080p Ukr / Eng | Sub Ukr / Eng


Жанр: пригодницький, фентезі
Країна: США



Кінокомпанія: 1492 Pictures; Fox 2000 Pictures;
Режисер: Кріс Коламбус
Актори: Логан Лерман, Брендон Т. Джексон, Александра Даддаріо, Джейк Абель, Шон Бін, Пірс Броснан, Стів Куган, Розаріо Доусон, Ума Турман та ін.

Сюжет:
В основу фільму покладено першу книгу Ріка Ріордана із серії "Персі Джексон та олімпійці". Головний персонаж - американський підліток, який дізнався, що він є сином грецького бога Посейдона. Аби запобігти війні між богами, він у супроводі сатира та дочки Афіни їде у далеку подорож, протягом якої хороброго хлопця намагається зупинити цілий сонм міфологічних ворогів.


Тривалість: 01:58:37
Якість: 1080p
Відео:
кодек:
розмір кадру: 1920x816
бітрейт: 17,0 Mб/с

Аудіо # 1:
мова: українська
переклад: професійний дубльований
кодек: 5.1
бітрейт: 448 кб/с

Аудіо # 2:
мова: англійська
переклад: оригінал
кодек: 5.1
бітрейт: 1509 кб/с

Джерело озвучення:


Субтитри:
мова: українська
тип: програмні (м'які)
формат: *.srt

Субтитри:
мова: англійська
тип: програмні (м'які)
формат: *.srt
Info
General
Unique ID : 187171421017965946971789473950071624544 (0x8CCFE789DA0DB5F5A0A1296111FD9360)
Complete name : N:\Майбутні релізи\Percy Jackson and the Olympians The Lightning Thief (2010) 1080p [UKR_ENG] [Hurtom].
Format :
Format version : Version 4 / Version 2
File size : 15.7 GiB
Duration : 1 h 58 min
Overall bit rate : 19.0 Mb/s
Movie name : Percy Jackson and the Olympians: The Lightning Thief (2010) 1080p [UKR_ENG] [Hurtom]
Encoded date : UTC 2018-10-02 19:27:47
Writing application : v24.0.0 ('Beyond The Pale') 64-bit
Writing library : libebml v1.3.6 + v1.4.9
Cover : Yes
Attachments : cover.jpg

Video
ID : 1
Format : AVC
Format/Info : Advanced Video Codec
Format profile : [email protected]
Format settings : CABAC / 5 Ref Frames
Format settings, CABAC : Yes
Format settings, ReFrames : 5 frames
Codec ID : V_MPEG4/ISO/AVC
Duration : 1 h 58 min
Bit rate : 17.0 Mb/s
Width : 1 920 pixels
Height : 816 pixels
Display aspect ratio : 2.35:1
Frame rate mode : Constant
Frame rate : 23.976 (24000/1001) FPS
Color space : YUV
Chroma subsampling : 4:2:0
Bit depth : 8 bits
Scan type : Progressive
Bits/(Pixel*Frame) : 0.453
Stream size : 14.1 GiB (90%)
Title : Release for HDCLUB
Writing library : core 96 r1613 81e75e9
Encoding settings : cabac=1 / ref=5 / deblock=1:-3:-3 / analyse=0x3:0x113 / me=tesa / subme=10 / psy=1 / psy_rd=0.90:0.00 / mixed_ref=1 / me_range=16 / chroma_me=1 / trellis=2 / 8x8dct=1 / cqm=0 / deadzone=21,11 / fast_pskip=0 / chroma_qp_offset=-2 / threads=12 / sliced_threads=0 / nr=0 / decimate=0 / interlaced=0 / constrained_intra=0 / bframes=7 / b_pyramid=2 / b_adapt=2 / b_bias=0 / direct=3 / weightb=1 / weightp=2 / keyint=250 / keyint_min=25 / scenecut=40 / intra_refresh=0 / rc=2pass / mbtree=0 / bitrate=17000 / ratetol=1.0 / qcomp=0.55 / qpmin=10 / qpmax=51 / qpstep=4 / cplxblur=20.0 / qblur=0.5 / ip_ratio=1.40 / pb_ratio=1.30 / aq=1:0.80
Language : English
Default : Yes
Forced : No

Audio #1
ID : 2
Format : AC-3
Format/Info : Audio Coding 3
Codec ID : A_AC3
Duration : 1 h 58 min
Bit rate mode : Constant
Bit rate : 448 kb/s
Channel(s) : 6 channels
Channel positions : Front: L C R, Side: L R, LFE
Sampling rate : 48.0 kHz
Frame rate : 31.250 FPS (1536 SPF)
Bit depth : 16 bits
Compression mode : Lossy
Stream size : 380 MiB (2%)
Title : Дубляж, Blu-ray CEE
Language : Ukrainian
Service kind : Complete Main
Default : Yes
Forced : Yes

Audio #2
ID : 3
Format :
Format/Info : Digital Theater Systems
Codec ID : A_DTS
Duration : 1 h 58 min
Bit rate mode : Constant
Bit rate : 1 509 kb/s
Channel(s) : 6 channels
Channel positions : Front: L C R, Side: L R, LFE
Sampling rate : 48.0 kHz
Frame rate : 93.750 FPS (512 SPF)
Bit depth : 24 bits
Compression mode : Lossy
Stream size : 1.25 GiB (8%)
Title : Original English
Language : English
Default : No
Forced : No

Text #1
ID : 4
Format : UTF-8
Codec ID : S_TEXT/UTF8
Codec ID/Info : UTF-8 Plain Text
Duration : 1 h 51 min
Bit rate : 76 b/s
Count of elements : 1174
Stream size : 62.5 KiB (0%)
Title : Blu-ray CEE
Language : Ukrainian
Default : No
Forced : No

Text #2
ID : 5
Format : UTF-8
Codec ID : S_TEXT/UTF8
Codec ID/Info : UTF-8 Plain Text
Duration : 1 h 57 min
Bit rate : 51 b/s
Count of elements : 1580
Stream size : 44.4 KiB (0%)
Title : English subtitles
Language : English
Default : No
Forced : No

Menu
00:00:00.000 : :Chapter 1
00:04:39.404 : :Chapter 2
00:07:28.448 : :Chapter 3
00:09:47.295 : :Chapter 4
00:14:56.020 : :Chapter 5
00:20:28.894 : :Chapter 6
00:24:39.770 : :Chapter 7
00:31:09.993 : :Chapter 8
00:34:25.939 : :Chapter 9
00:38:50.578 : :Chapter 10
00:41:23.147 : :Chapter 11
00:43:15.384 : :Chapter 12
00:46:49.557 : :Chapter 13
00:50:05.836 : :Chapter 14
00:56:49.615 : :Chapter 15
01:01:35.400 : :Chapter 16
01:04:49.260 : :Chapter 17
01:10:20.591 : :Chapter 18
01:13:32.783 : :Chapter 19
01:20:58.353 : :Chapter 20
01:25:16.862 : :Chapter 21
01:29:38.915 : :Chapter 22
01:33:42.742 : :Chapter 23
01:38:35.701 : :Chapter 24
01:41:45.850 : :Chapter 25
01:44:47.114 : :Chapter 26
01:47:43.582 : :Chapter 27
01:52:12.017 : :Chapter 28
Скріншоти




Джерело: &
Особиста оцінка: 8 - мені сподобалося
Персі Джексон та Викрадач блискавок / Percy Jackson & the Olympians: The Lightning Thief (2010) 1080p Ukr / Eng | Sub Ukr / Eng

Персі Джексон та Викрадач блискавок / Percy Jackson & the Olympians: The Lightning Thief (2010) 1080p Ukr / Eng | Sub Ukr / Eng


 Трекер:    Зареєстрований   

Завантажити / скачати фільм українською



відео для новачків



 Зареєстрований:   2018-10-02 21:58
 Розмір:   15.72 GB 
 Оцінка фільму:   8/10 (Голосів: 5)
   
Ваш часовий пояс: GMT + 2 Години

Нова тема   Відповісти