Телепорт / Jumper (2008) AVC [Open Matte] 2xUkr/Eng | Sub Ukr/Eng

Нові коментарі

Нова тема   Відповісти
Автор Повідомлення
staf777 
Відео Гуртом - підтримка та поширення
Відео Гуртом - підтримка та поширення


З нами з: 16.11.16
Востаннє: 04.08.20
Повідомлень: 3928

2018-10-02 21:54  
Телепорт / Jumper (2008) AVC [Open Matte] 2xUkr/Eng | Sub Ukr/Eng

Телепорт / Jumper (2008) AVC [Open Matte] 2xUkr/Eng | Sub Ukr/Eng


Жанр: фантастика, бойовик, трилер, пригодницький
Країна: США, Канада



Кінокомпанія: Twentieth Century Fox Film Corporation, Regency Enterprises, New Regency Pictures
Режисер: Даґ Лайман
Актори: Хейден Крістенсен / Hayden Christensen, Джеймі Белл / Jamie Bell, Рейчел Білсон / Rachel Bilson, Дайeн Лeйн / Diane Lane, Семюель Л. Джексон / Samuel L. Jackson та інші

Сюжет:
Підліток з неблагополучного району Девід Райс завжди вважав себе звичайним парубком, поки одного дня він не дізнався, що може переміщуватися у просторі. Нові здібності відкрили перед ним весь світ. Він може побувати в Нью-Йорку і Токіо, відвідати античні розвалини в Римі, побачити "дах світу" з гори Еверест, побачити 20 світанків і 20 заходів. І все — в один день. Тепер йому не потрібні гроші — він може узяти скільки хоче. Проте воднораз він виявляє, що став мішенню...


Тривалість: 01:28:20
Якість: --AVC
Відео:
кодек:
розмір кадру: 1024x576
бітрейт: 2654 кб/с

Аудіо # 1:
мова: українська
переклад: професійний дубльований
кодек: 5.1
бітрейт: 448 кб/с

Аудіо # 2:
мова: українська
переклад: багатоголосий закадровий
кодек: 2.0
бітрейт: 192 кб/с

Аудіо # 3:
мова: англійська
переклад: оригінал
кодек: 5.1
бітрейт: 448 кб/с

Джерело озвучення:
+

Субтитри: [Forced+Full]
мова: українська
тип: програмні (м'які)
формат: *.srt

Субтитри:
мова: англійська
тип: програмні (м'які)
формат: *.srt
Скріншоти



MI
General
Unique ID : 125575588521540527415582831395458202447 (0x5E78FA86F4CAD82A03E367275CB73B4F)
Complete name : N:\Фільми AVC\Фантастика\Jumper (2008) AVC [Open Matte][2xUA][ENG][Hurtom].
Format :
Format version : Version 4 / Version 2
File size : 2.31 GiB
Duration : 1 h 28 min
Overall bit rate : 3 741 kb/s
Movie name : Jumper (2008) AVC [Open Matte][2xUA][ENG][Hurtom]
Encoded date : UTC 2018-10-02 18:26:28
Writing application : v24.0.0 ('Beyond The Pale') 64-bit
Writing library : libebml v1.3.6 + v1.4.9
Cover : Yes
Attachments : cover.jpg

Video
ID : 1
Format : AVC
Format/Info : Advanced Video Codec
Format profile : [email protected]
Format settings : CABAC / 9 Ref Frames
Format settings, CABAC : Yes
Format settings, ReFrames : 9 frames
Codec ID : V_MPEG4/ISO/AVC
Duration : 1 h 28 min
Bit rate : 2 654 kb/s
Width : 1 024 pixels
Height : 576 pixels
Display aspect ratio : 16:9
Frame rate mode : Constant
Frame rate : 23.976 (24000/1001) FPS
Color space : YUV
Chroma subsampling : 4:2:0
Bit depth : 8 bits
Scan type : Progressive
Bits/(Pixel*Frame) : 0.188
Stream size : 1.64 GiB (71%)
Title : Rip by 0ptimus
Writing library : core 133 r2334 a3ac64b
Encoding settings : cabac=1 / ref=9 / deblock=1:-3:-3 / analyse=0x3:0x113 / me=umh / subme=11 / psy=1 / psy_rd=1.00:0.20 / mixed_ref=1 / me_range=48 / chroma_me=1 / trellis=2 / 8x8dct=1 / cqm=0 / deadzone=21,11 / fast_pskip=0 / chroma_qp_offset=-3 / threads=4 / lookahead_threads=1 / sliced_threads=0 / nr=0 / decimate=0 / interlaced=0 / bluray_compat=0 / constrained_intra=0 / bframes=11 / b_pyramid=2 / b_adapt=2 / b_bias=0 / direct=3 / weightb=1 / open_gop=0 / weightp=2 / keyint=240 / keyint_min=23 / scenecut=40 / intra_refresh=0 / rc_lookahead=40 / rc=2pass / mbtree=0 / bitrate=2654 / ratetol=1.0 / qcomp=0.60 / qpmin=0 / qpmax=69 / qpstep=4 / cplxblur=20.0 / qblur=0.5 / vbv_maxrate=50000 / vbv_bufsize=50000 / nal_hrd=none / ip_ratio=1.40 / pb_ratio=1.30 / aq=1:1.00
Language : English
Default : Yes
Forced : Yes

Audio #1
ID : 2
Format : AC-3
Format/Info : Audio Coding 3
Codec ID : A_AC3
Duration : 1 h 28 min
Bit rate mode : Constant
Bit rate : 448 kb/s
Channel(s) : 6 channels
Channel positions : Front: L C R, Side: L R, LFE
Sampling rate : 48.0 kHz
Frame rate : 31.250 FPS (1536 SPF)
Bit depth : 16 bits
Compression mode : Lossy
Stream size : 283 MiB (12%)
Title : [UA-DUB]
Language : Ukrainian
Service kind : Complete Main
Default : Yes
Forced : Yes

Audio #2
ID : 3
Format : AC-3
Format/Info : Audio Coding 3
Codec ID : A_AC3
Duration : 1 h 28 min
Bit rate mode : Constant
Bit rate : 192 kb/s
Channel(s) : 2 channels
Channel positions : Front: L R
Sampling rate : 48.0 kHz
Frame rate : 31.250 FPS (1536 SPF)
Bit depth : 16 bits
Compression mode : Lossy
Stream size : 121 MiB (5%)
Title : [UA-MVO-ICTV]
Language : Ukrainian
Service kind : Complete Main
Default : No
Forced : No

Audio #3
ID : 4
Format : AC-3
Format/Info : Audio Coding 3
Codec ID : A_AC3
Duration : 1 h 28 min
Bit rate mode : Constant
Bit rate : 448 kb/s
Channel(s) : 6 channels
Channel positions : Front: L C R, Side: L R, LFE
Sampling rate : 48.0 kHz
Frame rate : 31.250 FPS (1536 SPF)
Bit depth : 16 bits
Compression mode : Lossy
Stream size : 283 MiB (12%)
Language : English
Service kind : Complete Main
Default : No
Forced : No

Text #1
ID : 5
Format : UTF-8
Codec ID : S_TEXT/UTF8
Codec ID/Info : UTF-8 Plain Text
Duration : 16 min 2 s
Bit rate : 2 b/s
Count of elements : 6
Stream size : 302 Bytes (0%)
Title : [Forced]
Language : Ukrainian
Default : Yes
Forced : Yes

Text #2
ID : 6
Format : UTF-8
Codec ID : S_TEXT/UTF8
Codec ID/Info : UTF-8 Plain Text
Duration : 1 h 22 min
Bit rate : 68 b/s
Count of elements : 898
Stream size : 41.5 KiB (0%)
Title : [Full]
Language : Ukrainian
Default : No
Forced : No

Text #3
ID : 7
Format : UTF-8
Codec ID : S_TEXT/UTF8
Codec ID/Info : UTF-8 Plain Text
Duration : 1 h 22 min
Bit rate : 46 b/s
Count of elements : 892
Stream size : 28.3 KiB (0%)
Language : English
Default : No
Forced : No

Menu
00:00:00.000 : en:Through the Ice
00:04:21.094 : en:Way to Be Free
00:07:52.555 : en:First Heist (Main Titles)
00:12:35.713 : en:The Paladin
00:15:08.699 : en:Touring the World
00:17:46.982 : en:Consequences
00:22:51.787 : en:Homecoming
00:25:51.466 : en:Seeing a Ghost
00:28:57.235 : en:Been a Long Time
00:31:46.988 : en:Beamed In
00:32:57.058 : en:Too Good to Be True
00:36:18.092 : en:First on My List
00:39:52.640 : en:Welcome to the War
00:43:21.056 : en:A Lot of Questions
00:48:47.299 : en:Different Tack
00:51:01.725 : en:Fanatics
00:54:48.285 : en:Joining Forces
00:59:15.969 : en:Now or Never
01:02:11.728 : en:Your Friend Came By
01:07:32.673 : en:Always You
01:12:45.402 : en:Jumper vs. Jumper
01:17:04.411 : en:A Long Way
01:20:39.584 : en:Head Start
01:23:49.065 : en:End Titles
Подяка п.Technomate за сирий звук та п.karvai0 за зведення аудіо №2;
п.Gelios за альтернативний постер
Джерело: &
Особиста оцінка: 0 - не дивився
Телепорт / Jumper (2008) AVC [Open Matte] 2xUkr/Eng | Sub Ukr/Eng

Телепорт / Jumper (2008) AVC [Open Matte] 2xUkr/Eng | Sub Ukr/Eng


 Трекер:    Зареєстрований   

Завантажити / скачати фільм українською



відео для новачків



 Зареєстрований:   2018-10-02 21:54
 Розмір:   2.31 GB 
 Оцінка фільму:   9.1/10 (Голосів: 29)
   
Інші релізи
   Телепорт / Jumper (2008) 1080p [Open Matte] H.265 2xUkr/Eng | Sub Ukr/Eng ukr_anonymous  4 / 0   6.28 GB   2018-08-05 03:02 
   Телепорт / Jumper (2008) Remux 1080p 2xUkr/Eng | Sub Ukr/Eng IronBee  2 / 0   20.15 GB   2018-05-22 11:26 
   Телепорт / Jumper (2008) 1080p 3D [Half OverUnder] Ukr/Eng | Sub Ukr/Eng GEORGKys  0 / 0   8.14 GB   2016-02-23 21:36 
   Телепорт / Jumper (2008) 1080p Ukr/Eng | Sub Ukr/Eng HI-FI SOUND  1 / 0   7.46 GB   2015-03-11 21:27 
   Телепорт / Jumper (2008) [Open Matte] 2xUkr/Eng | Sub Ukr/Eng omm  4 / 0   1.85 GB   2014-08-17 19:29 
   Телепорт / Jumper (2008) 2xUkr/Eng | Ukr/Eng karvai0  5 / 0   1.82 GB   2012-07-04 01:00 
   Телепорт / Jumper (2008) 720 Ukr/Eng | Ukr/Eng Гірський Кришталь  3 / 0   4.36 GB   2011-03-21 19:00 
   Телепорт / Jumper (2008) MutuLI  2 / 0   1.46 GB   2010-03-31 20:10 
Ваш часовий пояс: GMT + 2 Години

Нова тема   Відповісти