Мама / Anne (10 серій з 33) (2016) 1080p Ukr/Tur

Нові коментарі

Нова тема   Відповісти
Останній раз роздавалося Documentalist (2020-02-29)
Автор Повідомлення
Documentalist 
Забанено
Забанено


З нами з: 04.06.17
Востаннє: 21.03.20
Повідомлень: 107

2018-10-02 20:18  
Мама / Anne (10 серій з 33) (2016) 1080p Ukr/Tur

Мама / Anne (10 серій з 33) (2016) 1080p Ukr/Tur


Жанр: Мелодрама, драма
Країна: Туреччина



Режисер: Мерві Гіргін Айтекін
Актори: Джансу Дере / Cansu Dere, Вахіде Перчин / Vahide Perçin, Берен Гекйилдиз / Beren Gökyıldız, Гонджа Вуслатері / Gonca Vuslateri, Беркай Атеш / Berkay Ates, Ґюленай Калкан / Gülenay Kalkan, Джан Нергіз / Can Nergis, Алізе Гердюм / Alize Gerdyum, Ахсен Ероглу / Ahsen Eroğlu, та ін.

Сюжет:
Це турецька адаптація японського формату, що вийшов з оригінальною назвою "Mother". Події в серіалі "Мама" розгортаються навколо злочину - злочину в ім'я добра і справедливості. Так принаймні думала головна героїня мелодрами "Мама" Зейнеп, роль якої виконала зірка "Величного століття" Дженсен Дере, правда сама Зейнеп можливо навіть і не усвідомлювала, що порушує закон. Почалося все з того, що дівчина прийшла працювати в школу. Вона хоч і мріяла стати фотографом, але для цього потрібні були кошти, так що поки Зейнеп влаштувалася вчителькою. Серед її маленьких учнів була одна дівчинка, з якою явно щось відбувалося. Мелек частенько приходила в школу з синцями, і Зейнеп з'ясувала, що вдома дівчинку б'ють. Мати зі своїм коханцем жорстоко поводилися з Мелек, перетворивши її життя на справжнє пекло. Зейнеп відчула бажання захистити свою ученицю, оточити її турботою і любов'ю, подарувати їй то материнське тепло, якого вона була позбавлена. Молода вчителька згадала і своє дитинство, вона адже виховувалася прийомними батьками, і їй захотілося створити для Мелек справжню сім'ю. Викрасти дівчинку і відвезти її подалі від жорстокої матері - ось що придумала головна героїня турецької мелодрами "Мама". А далі події цієї картини розгортатимуться, так би мовити, згідно із законами жанру: глядачів чекають непередбачувані повороти сюжету, складні взаємини, пригоди і, звичайно ж, зворушлива любовна інтрига.


Тривалість: 1 серія: 10x ~ 01:42:00 (цілком серій: 10)
Якість:
Відео:
кодек:
розмір кадру: 1920 х 1080
бітрейт: 5000 кб/с

Аудіо:
мова: українська
переклад: професійний дубльований
кодек: 2.0
бітрейт: 192 кб/с

Аудіо:#2
мова: турецька
переклад: оригінал
кодек: 2.0
бітрейт: 192 кб/с

Джерело озвучення:
Info
Format :
Format version : Version 4
File size : 4.13 GiB
Duration : 1 h 50 min
Overall bit rate : 5 354 kb/s
Encoded date : UTC 2018-09-23 22:37:48
Writing application : v7.8.0 ('River Man') 32bit built on Apr 3 2015 12:11:22
Writing library : libebml v1.3.1 + v1.4.2
Cover : Yes
Attachments : cover.jpg

Video
ID : 1
Format : AVC
Format/Info : Advanced Video Codec
Format profile : [email protected]
Format settings : CABAC / 4 Ref Frames
Format settings, CABAC : Yes
Format settings, ReFrames : 4 frames
Codec ID : V_MPEG4/ISO/AVC
Duration : 1 h 50 min
Bit rate : 5 000 kb/s
Width : 1 920 pixels
Height : 1 080 pixels
Display aspect ratio : 16:9
Frame rate mode : Constant
Frame rate : 25.000 FPS
Color space : YUV
Chroma subsampling : 4:2:0
Bit depth : 8 bits
Scan type : Progressive
Bits/(Pixel*Frame) : 0.096
Stream size : 3.83 GiB (93%)
Writing library : core 146 r2538 121396c
Encoding settings : cabac=1 / ref=4 / deblock=1:-3:-3 / analyse=0x3:0x113 / me=umh / subme=11 / psy=1 / psy_rd=1.00:0.20 / mixed_ref=1 / me_range=64 / chroma_me=1 / trellis=2 / 8x8dct=1 / cqm=0 / deadzone=21,11 / fast_pskip=0 / chroma_qp_offset=-3 / threads=18 / lookahead_threads=4 / sliced_threads=0 / nr=0 / decimate=0 / interlaced=0 / bluray_compat=0 / constrained_intra=0 / bframes=16 / b_pyramid=2 / b_adapt=2 / b_bias=0 / direct=3 / weightb=1 / open_gop=0 / weightp=2 / keyint=250 / keyint_min=25 / scenecut=40 / intra_refresh=0 / rc_lookahead=40 / rc=2pass / mbtree=0 / bitrate=5000 / ratetol=1.0 / qcomp=0.60 / qpmin=0 / qpmax=69 / qpstep=4 / cplxblur=20.0 / qblur=0.5 / vbv_maxrate=14000 / vbv_bufsize=14000 / nal_hrd=none / filler=0 / ip_ratio=1.40 / pb_ratio=1.30 / aq=1:1.00
Language : Ukrainian
Default : Yes
Forced : No

Audio #1
ID : 2
Format : AC-3
Format/Info : Audio Coding 3
Commercial name : Dolby Digital
Codec ID : A_AC3
Duration : 1 h 50 min
Bit rate mode : Constant
Bit rate : 192 kb/s
Channel(s) : 2 channels
Channel layout : L R
Sampling rate : 48.0 kHz
Frame rate : 31.250 FPS (1536 SPF)
Bit depth : 16 bits
Compression mode : Lossy
Stream size : 152 MiB (4%)
Language : Ukrainian
Service kind : Complete Main
Default : Yes
Forced : No

Audio #2
ID : 3
Format : AC-3
Format/Info : Audio Coding 3
Commercial name : Dolby Digital
Codec ID : A_AC3
Duration : 1 h 50 min
Bit rate mode : Constant
Bit rate : 192 kb/s
Channel(s) : 2 channels
Channel layout : L R
Sampling rate : 48.0 kHz
Frame rate : 31.250 FPS (1536 SPF)
Bit depth : 16 bits
Compression mode : Lossy
Stream size : 152 MiB (4%)
Language : Turkish
Service kind : Complete Main
Default : No
Forced : No
Скріншоти



Особиста оцінка: 10 - без зайвих вагань рекомендую всім!


Бронзовий реліз (на рейтинг впливає 75% завантаженого)
 Трекер:    Зареєстрований   

Завантажити / скачати серіал українською



відео для новачків



 Зареєстрований:   2018-10-02 20:18
 Розмір:   41.98 GB 
 Оцінка серіалу:   10/10 (Голосів: 5)
   
Electroz 
Відео Гуртом - підтримка та поширення
Відео Гуртом - підтримка та поширення


З нами з: 18.09.14
Востаннє: 05.12.20
Повідомлень: 4219

2018-10-02 20:23  
Плануєте робити решту серій?
Documentalist 
Забанено
Забанено


З нами з: 04.06.17
Востаннє: 21.03.20
Повідомлень: 107

2018-10-02 20:26  
ElectrozТак звiсно!
Додавати буду по 10 серiй.Дуже складне таймування.

Може хтось бажає допомогти?Можу вiдiслати дорiжки Happy

Electroz 
Відео Гуртом - підтримка та поширення
Відео Гуртом - підтримка та поширення


З нами з: 18.09.14
Востаннє: 05.12.20
Повідомлень: 4219

2018-10-02 20:29  
Documentalist написано:
Дуже складне таймування.

Не заперечую, важко зводити порізані серії від плюсів. Вже перевірив на собі.

Documentalist 
Забанено
Забанено


З нами з: 04.06.17
Востаннє: 21.03.20
Повідомлень: 107

2018-10-02 20:35  
Electroz
Справа у тому, що вони закодували трафік на завантажування.Кожну серію треба записувати.Звідси і часу треба багато.Наразі є 60 записаних доріг.Поки що буду зводити,та аплодувати сюди.Далі знов писати)

Electroz 
Відео Гуртом - підтримка та поширення
Відео Гуртом - підтримка та поширення


З нами з: 18.09.14
Востаннє: 05.12.20
Повідомлень: 4219

2018-10-02 20:59  
Documentalist
є 85 серій, які порізані по 45 хв, можу скинути посилання.

Documentalist 
Забанено
Забанено


З нами з: 04.06.17
Востаннє: 21.03.20
Повідомлень: 107

2018-10-02 21:13  
Electroz Скиньте будь ласка!
11FrYkT 
Модератор відео


З нами з: 20.02.11
Востаннє: 05.12.20
Повідомлень: 7058

2018-10-05 11:57  
Documentalist написано:
Мама / Anne (2016) (10 серій з 33) 1080p UKR/TUR

в заголовку вкажіть який сезон

Також додайте посилання ІМДБ

Documentalist 
Забанено
Забанено


З нами з: 04.06.17
Востаннє: 21.03.20
Повідомлень: 107

2018-10-05 20:18  
11FrYkT
Вiн один .Продовження не буде.

tolko 
Новенький


З нами з: 26.12.16
Востаннє: 20.11.20
Повідомлень: 8

2020-04-26 15:45  
Нарід, станьте хтось на роздачу будь ласка. В кого є цей серіал?
Юрій Холмс 
Новенький


З нами з: 25.11.17
Востаннє: 03.12.20
Повідомлень: 1

2020-06-16 14:22  
Підкажіть, будь-ласка, коли цей серіал буде повністю пристуній на цьому сайті? Також цікавить іще один турецький серіал "Наречена зі Стамбула": його взагалі не має на цьому сайті, а хотілося, щоб був присутній.
Ваш часовий пояс: GMT + 2 Години

Нова тема   Відповісти