Першому гравцю приготуватися / Ready Player One (2018) 720p-mini (60 fps)

Нові коментарі

Нова тема   Відповісти
Автор Повідомлення
Drool 
VIP


З нами з: 17.04.10
Востаннє: 14.12.18
Повідомлень: 1500

2018-10-02 16:16  
Першому гравцю приготуватися / Ready Player One (2018) 720p-mini (60 fps)

Першому гравцю приготуватися / Ready Player One (2018) 720p-mini (60 fps)


Жанр: фантастика, бойовик, пригодницький, кіберпанк
Країна: США


Діти до 13 років допускаються на фільм тільки з батьками
Настійне застереження батькам. Деякий матеріал може бути невідповідним для дітей до 13 років. Цей рейтинг показує, що оцінений фільм може бути невідповідним для дітей. Батьки повинні бути особливо обережні, дозволяючи своїм маленьким дітям перегляд. Грубе або тривале насильство відсутнє; сексуальна орієнтація на наготу відсутня; деякі сцени вживання наркотиків можуть бути присутніми; можна почути одиничні вживання грубої сексуальної лексики. Присутня епізодична оголеність (не враховуючи репродуктивні органи). Присутні сексуальні натяки і натяки на гомосексуалізм чи сексуальні збочення.
Кінокомпанія: Warner Bros. Pictures, DreamWorks SKG, Amblin Entertainment, Village Roadshow Pictures, De Line Pictures
Режисер: Стівен Спілберг
Актори: Тай Шерідан, Олівія Кук, Бен Мендельсон, Саймон Пегг, Ті Джей Міллер, Ліна Вейт, Марк Райленс, Він Морісакі, Філіп Зао, Ханна Джон-Кеймен та інші

Сюжет:
На дворі 2045 рік. Світ загруз на межі хаосу, адже велика частина населення просто виживає без достатніх коштів для існування. Щоб піти від непривабливої реальності, багато хто проводить час у грандіозному віртуальному ігровому всесвіті - ОАЗІ. Його створив ексцентричний і геніальний мільярдер Джеймс Голлідей. Після своєї смерті він заповів все своє майно (а це півтрильйона доларів і влада над грою) єдиному гравцеві – тому, хто першим добереться до ретельно захованої "пасхалки". Весь світ тепер готовий поборотися за ці неймовірні багатства. До змагання приєднується і звичайний хлопець-сирота Вейд Воттс (Тай Шерідан) і потрапляє у небезпечне полювання на скарб у фантастичному всесвіті таємниць, відкриттів та ризику...


Тривалість: 02:19:58
Якість: 720p-mini
Відео:
розмір кадру: 1280х534
бітрейт: 6000 кб/с
кадрів на секунду: 60.000 к/с

Аудіо:
мова: українська
переклад: професійний дубльований
кодек: 2.0 (стерео)
бітрейт: 192 кб/с

Субтитри (форсовані):
мова: українська
тип: програмні (м'які)
формат: *.srt
Info
Код:
General
Unique ID                                : 297799431237079976741437847607319947692 (0xE00A158E66570F2D90561557B98369AC)
Complete name                            : /mnt/disk_d/Video/Ready.Player.One.2018.Ukr.Dub-2.0..720p-mini.60fps.
Format                                   :
Format version                           : Version 4 / Version 2
File size                                : 6.05 GiB
Duration                                 : 2 h 19 min
Overall bit rate                         : 6 188 kb/s
Movie name                               : Першому гравцю приготуватися / Ready Player One (2018) 720p-mini (60 fps) | NNNB
Encoded date                             : UTC 2018-10-02 13:55:47
Writing application                      : v14.0.0 ('Flow') 64bit
Writing library                          : libebml v1.3.4 + v1.4.7
Cover                                    : Yes
Attachments                              : cover.png

Video
ID                                       : 1
Format                                   : AVC
Format/Info                              : Advanced Video Codec
Format profile                           : [email protected]
Format settings                          : CABAC / 12 Ref Frames
Format settings, CABAC                   : Yes
Format settings, RefFrames               : 12 frames
Codec ID                                 : V_MPEG4/ISO/AVC
Duration                                 : 2 h 19 min
Bit rate                                 : 6 000 kb/s
Width                                    : 1 280 pixels
Height                                   : 534 pixels
Display aspect ratio                     : 2.40:1
Frame rate mode                          : Constant
Frame rate                               : 60.000 FPS
Color space                              : YUV
Chroma subsampling                       : 4:2:0
Bit depth                                : 8 bits
Scan type                                : Progressive
Bits/(Pixel*Frame)                       : 0.146
Stream size                              : 5.86 GiB (97%)
Title                                    : Першому гравцю приготуватися / Ready Player One (2018) 720p-mini (60 fps) | NNNB
Writing library                          : core 155 r2901 7d0ff22
Encoding settings                        : cabac=1 / ref=12 / deblock=1:0:0 / analyse=0x3:0x113 / me=umh / subme=11 / psy=1 / psy_rd=1.00:0.00 / mixed_ref=1 / me_range=32 / chroma_me=1 / trellis=2 / 8x8dct=1 / cqm=0 / deadzone=21,11 / fast_pskip=0 / chroma_qp_offset=-2 / threads=17 / lookahead_threads=4 / sliced_threads=0 / nr=0 / decimate=0 / interlaced=0 / bluray_compat=0 / constrained_intra=0 / bframes=10 / b_pyramid=2 / b_adapt=2 / b_bias=0 / direct=3 / weightb=1 / open_gop=0 / weightp=2 / keyint=250 / keyint_min=25 / scenecut=40 / intra_refresh=0 / rc=2pass / mbtree=0 / bitrate=6000 / ratetol=1.0 / qcomp=0.60 / qpmin=0 / qpmax=69 / qpstep=4 / cplxblur=20.0 / qblur=0.5 / ip_ratio=1.40 / pb_ratio=1.30 / aq=1:1.00
Default                                  : Yes
Forced                                   : Yes

Audio
ID                                       : 2
Format                                   : AC-3
Format/Info                              : Audio Coding 3
Format settings, Endianness              : Big
Codec ID                                 : A_AC3
Duration                                 : 2 h 19 min
Bit rate mode                            : Constant
Bit rate                                 : 192 kb/s
Channel(s)                               : 2 channels
Channel positions                        : Front: L R
Sampling rate                            : 48.0 kHz
Frame rate                               : 31.250 FPS (1536 SPF)
Bit depth                                : 16 bits
Compression mode                         : Lossy
Stream size                              : 192 MiB (3%)
Title                                    : 2.0 @ 192 kbps
Language                                 : Ukrainian
Service kind                             : Complete Main
Default                                  : Yes
Forced                                   : Yes

Text
ID                                       : 3
Format                                   : UTF-8
Codec ID                                 : S_TEXT/UTF8
Codec ID/Info                            : UTF-8 Plain Text
Duration                                 : 2 h 18 min
Bit rate                                 : 2 b/s
Count of elements                        : 65
Stream size                              : 2.95 KiB (0%)
Title                                    : Forced
Language                                 : Ukrainian
Default                                  : Yes
Forced                                   : Yes
Скріншоти
Джерело відеоряду:
Аудіодоріжку та форсовані субтитри взято з релізу AVC.
Особиста оцінка: 8 - мені сподобалося


 Трекер:    Зареєстрований   

Завантажити / скачати фільм українською



відео для новачків



 Зареєстрований:   2018-10-02 16:16
 Розмір:   6.05 GB 
 Оцінка фільму:   8.9/10 (Голосів: 7)
   
Ваш часовий пояс: GMT + 2 Години

Нова тема   Відповісти