Монстри на канікулах. Трилогія / Hotel Transylvania. Trilogy (2012-2018) 1080p H.265 Ukr/Eng | Sub Ukr/Eng

Нові коментарі

Нова тема   Відповісти
Автор Повідомлення
Anonymous 







2018-10-02 12:43  
Монстри на канікулах. Трилогія / Hotel Transylvania. Trilogy (2012-2018) 1080p H.265 Ukr/Eng | Sub Ukr/Eng

Монстри на канікулах. Трилогія / Hotel Transylvania. Trilogy (2012-2018) 1080p H.265 Ukr/Eng | Sub Ukr/Eng

1. 2. 3.

1. Монстри на канікулах / Hotel Transylvania (2012) 1080p H.265 Ukr/Eng | Sub Ukr/Eng
Монстри на канікулах / Hotel Transylvania (2012) 1080p H.265 Ukr/Eng | Sub Ukr/Eng

Монстри на канікулах. Трилогія / Hotel Transylvania. Trilogy (2012-2018) 1080p H.265 Ukr/Eng | Sub Ukr/Eng


Жанр: анімація, комедія, сімейний
Країна: США
Кінокомпанія: Columbia Pictures, Sony Pictures Animation
Режисер: Геннадій Тартаковський (Дженді Тартаковскі) / Genndy Tartakovsky
Актори: Адам Сендлер, Селена Ґомез, Стів Бушемі, Кевін Джеймс, Девід Спейд, Енді Семберґ, Френ Дрешер та інші

Сюжет:
Граф Дракула для себе і своєї улюбленої доньки побудував добре захований від сторонніх очей готель, куди монстри з усього світу приїжджають відпочити від сімейних турбот, повсякденних проблем і, звичайно ... людей. Але всюдисущі американські туристи проникають і сюди.

Тривалість: 01:31:31
Якість:

Відео:
кодек: H.265 (HEVC)
розмір кадру: 1920 x 1036
бітрейт: 5 332 кб/с
бітова глибина: 10 біт

Увага! Перед завантаженням переконайтесь, що ваш пристрій відтворення (та/або ПЗ) підтримує H.265 (HEVC)

Аудіо # 1:
мова: українська
озвучення: професійне дубльоване | студія LeDoyen
кодек: 5.1
бітрейт: 640 кб/с
Інформація про дубляж
Переклад тексту і пісень: Олекса Негребецький
Ролі дублювали:
Адам Сендлер / Дракула — Юрій Ребрик,
Селена Ґомез / Мейвіс — Анастасія Зіновенко,
Мюрей — Назар Задніпровський,
Кевін Джеймс / Франкенштейн — Максим Кондратюк,
Девід Спейд / Неведимець — Ярослав Чорненький,
Енді Семберґ / Джонатан — Іван Дорн,
Моллі Шеннон / Ванда — Сніжана Єгорова,
Стів Бушемі / Вейн — Антін Мухарський,
Френ Дрешер / Юніс - Наталія Надірадзе,
Голос Матері — Людмила Ардельян,
Олег Лепенець, Михайло Кришталь, Борис Георгієвськийта інші.
Аудіо # 2:
мова: англійська
озвучення: оригінал
кодек: 5.1
бітрейт: 1510 кб/с

Аудіо # 3:
мова: англійська
озвучення: оригінал | Commentary
кодек: AC-3 2.0
бітрейт: 192 кб/с

Субтитри # 1: (Full from Netflix)
мова: українська
тип: програмні (м'які)
формат: *.srt

Субтитри # 2-6: (Forced, Full, SDH, SDH-Colored, Commentary)
мова: англійська
тип: програмні (м'які)
формат: *.srt


Інформація про файл
Код:
General
Unique ID                                : 334704188293011129846335108167228477136 (0xFBCDAE8F5454DC58D5AB0FD513144ED0)
Complete name                            : 1. Hotel Transylvania (2012) 1080p H.265 [UKR_ENG] [Hurtom].
Format                                   :
Format version                           : Version 4
File size                                : 4.91 GiB
Duration                                 : 1 h 31 min
Overall bit rate                         : 7 678 kb/s
Movie name                               : Монстри на канікулах / Hotel Transylvania (2012)
Encoded date                             : UTC 2020-11-26 15:44:13
Writing application                      : v20.0.0 ('I Am The Sun') 64-bit
Writing library                          : libebml v1.3.5 + v1.4.8
Cover                                    : Yes
Attachments                              : Cover.jpg

Video
ID                                       : 1
Format                                   : HEVC
Format/Info                              : High Efficiency Video Coding
Format profile                           : Main [email protected]@High
Codec ID                                 : V_MPEGH/ISO/HEVC
Duration                                 : 1 h 31 min
Bit rate                                 : 5 332 kb/s
Width                                    : 1 920 pixels
Height                                   : 1 036 pixels
Display aspect ratio                     : 1.85:1
Frame rate mode                          : Constant
Frame rate                               : 23.976 (24000/1001) FPS
Color space                              : YUV
Chroma subsampling                       : 4:2:0
Bit depth                                : 10 bits
Bits/(Pixel*Frame)                       : 0.112
Stream size                              : 3.41 GiB (69%)
Title                                    : Монстри на канікулах / Hotel Transylvania (2012)
Writing library                          : x265 2.8+19-bcdc610cf5f0:[Windows][GCC 7.3.0][64 bit] 10bit
Encoding settings                        : cpuid=1049583 / frame-threads=5 / numa-pools=4 / wpp / no-pmode / no-pme / no-psnr / no-ssim / log-level=3 / input-csp=1 / input-res=1920x1036 / interlace=0 / total-frames=0 / level-idc=41 / high-tier=1 / uhd-bd=0 / ref=5 / allow-non-conformance / no-repeat-headers / annexb / no-aud / no-hrd / info / hash=0 / no-temporal-layers / open-gop / min-keyint=24 / keyint=240 / gop-lookahead=0 / bframes=8 / b-adapt=2 / b-pyramid / bframe-bias=0 / rc-lookahead=40 / lookahead-slices=6 / scenecut=40 / radl=0 / no-intra-refresh / ctu=64 / min-cu-size=8 / no-rect / no-amp / max-tu-size=32 / tu-inter-depth=1 / tu-intra-depth=1 / limit-tu=0 / rdoq-level=0 / dynamic-rd=0.00 / no-ssim-rd / signhide / no-tskip / nr-intra=0 / nr-inter=0 / no-constrained-intra / strong-intra-smoothing / max-merge=2 / limit-refs=3 / no-limit-modes / me=3 / subme=7 / merange=57 / temporal-mvp / weightp / no-weightb / no-analyze-src-pics / deblock=-3:-3 / no-sao / no-sao-non-deblock / rd=3 / no-early-skip / rskip / no-fast-intra / no-tskip-fast / no-cu-lossless / no-b-intra / no-splitrd-skip / rdpenalty=0 / psy-rd=2.00 / psy-rdoq=0.00 / no-rd-refine / no-lossless / cbqpoffs=0 / crqpoffs=0 / rc=crf / crf=16.5 / qcomp=0.60 / qpstep=4 / stats-write=0 / stats-read=0 / vbv-maxrate=50000 / vbv-bufsize=50000 / vbv-init=0.9 / crf-max=0.0 / crf-min=0.0 / ipratio=1.40 / pbratio=1.30 / aq-mode=1 / aq-strength=1.00 / cutree / zone-count=0 / no-strict-cbr / qg-size=32 / no-rc-grain / qpmax=69 / qpmin=0 / no-const-vbv / sar=1 / overscan=0 / videoformat=5 / range=0 / colorprim=1 / transfer=1 / colormatrix=1 / chromaloc=0 / display-window=0 / max-cll=0,0 / min-luma=0 / max-luma=1023 / log2-max-poc-lsb=8 / vui-timing-info / vui-hrd-info / slices=1 / no-opt-qp-pps / no-opt-ref-list-length-pps / no-multi-pass-opt-rps / scenecut-bias=0.05 / no-opt-cu-delta-qp / no-aq-motion / no-hdr / no-hdr-opt / no-dhdr10-opt / no-idr-recovery-sei / analysis-reuse-level=5 / scale-factor=0 / refine-intra=0 / refine-inter=0 / refine-mv=0 / no-limit-sao / ctu-info=0 / no-lowpass-dct / refine-mv-type=0 / copy-pic=1 / max-ausize-factor=1.0 / no-dynamic-refine / no-single-sei
Language                                 : English
Default                                  : Yes
Forced                                   : No
Color range                              : Limited
Color primaries                          : BT.709
Transfer characteristics                 : BT.709
Matrix coefficients                      : BT.709

Audio #1
ID                                       : 2
Format                                   : AC-3
Format/Info                              : Audio Coding 3
Commercial name                          : Dolby Digital
Codec ID                                 : A_AC3
Duration                                 : 1 h 31 min
Bit rate mode                            : Constant
Bit rate                                 : 640 kb/s
Channel(s)                               : 6 channels
Channel layout                           : L R C LFE Ls Rs
Sampling rate                            : 48.0 kHz
Frame rate                               : 31.250 FPS (1536 SPF)
Compression mode                         : Lossy
Stream size                              : 419 MiB (8%)
Title                                    : AC-3 / 5.1 Ch / 640 kbps / DUB / Blu-Ray
Language                                 : Ukrainian
Service kind                             : Complete Main
Default                                  : Yes
Forced                                   : Yes

Audio #2
ID                                       : 3
Format                                   :
Format/Info                              : Digital Theater Systems
Codec ID                                 : A_DTS
Duration                                 : 1 h 31 min
Bit rate mode                            : Constant
Bit rate                                 : 1 509 kb/s
Channel(s)                               : 6 channels
Channel layout                           : C L R Ls Rs LFE
Sampling rate                            : 48.0 kHz
Frame rate                               : 93.750 FPS (512 SPF)
Bit depth                                : 24 bits
Compression mode                         : Lossy
Delay relative to video                  : 11 ms
Stream size                              : 988 MiB (20%)
Title                                    : / 5.1 Ch / 1509 kbps / Original
Language                                 : English
Default                                  : No
Forced                                   : No

Audio #3
ID                                       : 4
Format                                   : AC-3
Format/Info                              : Audio Coding 3
Commercial name                          : Dolby Digital
Codec ID                                 : A_AC3
Duration                                 : 1 h 31 min
Bit rate mode                            : Constant
Bit rate                                 : 192 kb/s
Channel(s)                               : 2 channels
Channel layout                           : L R
Sampling rate                            : 48.0 kHz
Frame rate                               : 31.250 FPS (1536 SPF)
Compression mode                         : Lossy
Stream size                              : 126 MiB (3%)
Title                                    : AC-3 / 2.0 Ch / 192 kbps / Original / Commentary
Language                                 : English
Service kind                             : Complete Main
Default                                  : No
Forced                                   : No

Text #1
ID                                       : 5
Format                                   : UTF-8
Codec ID                                 : S_TEXT/UTF8
Codec ID/Info                            : UTF-8 Plain Text
Duration                                 : 1 h 30 min
Bit rate                                 : 126 b/s
Count of elements                        : 1358
Stream size                              : 84.0 KiB (0%)
Title                                    : Full from Netflix
Language                                 : Ukrainian
Default                                  : No
Forced                                   : No

Text #2
ID                                       : 6
Format                                   : UTF-8
Codec ID                                 : S_TEXT/UTF8
Codec ID/Info                            : UTF-8 Plain Text
Bit rate                                 : 0 b/s
Count of elements                        : 0
Stream size                              : 0.00 Byte (0%)
Title                                    : Forced
Language                                 : English
Default                                  : No
Forced                                   : No

Text #3
ID                                       : 7
Format                                   : UTF-8
Codec ID                                 : S_TEXT/UTF8
Codec ID/Info                            : UTF-8 Plain Text
Duration                                 : 1 h 24 min
Bit rate                                 : 64 b/s
Count of elements                        : 1288
Stream size                              : 40.1 KiB (0%)
Title                                    : Full
Language                                 : English
Default                                  : No
Forced                                   : No

Text #4
ID                                       : 8
Format                                   : UTF-8
Codec ID                                 : S_TEXT/UTF8
Codec ID/Info                            : UTF-8 Plain Text
Duration                                 : 1 h 25 min
Bit rate                                 : 75 b/s
Count of elements                        : 1480
Stream size                              : 46.9 KiB (0%)
Title                                    : SDH
Language                                 : English
Default                                  : No
Forced                                   : No

Text #5
ID                                       : 9
Format                                   : UTF-8
Codec ID                                 : S_TEXT/UTF8
Codec ID/Info                            : UTF-8 Plain Text
Duration                                 : 1 h 25 min
Bit rate                                 : 82 b/s
Count of elements                        : 1480
Stream size                              : 51.2 KiB (0%)
Title                                    : SDH-Colored
Language                                 : English
Default                                  : No
Forced                                   : No

Text #6
ID                                       : 10
Format                                   : UTF-8
Codec ID                                 : S_TEXT/UTF8
Codec ID/Info                            : UTF-8 Plain Text
Duration                                 : 1 h 28 min
Bit rate                                 : 118 b/s
Count of elements                        : 1521
Stream size                              : 76.7 KiB (0%)
Title                                    : Commentary
Language                                 : English
Default                                  : No
Forced                                   : No

Menu
00:00:00.000                             : en:Chapter 00
00:04:49.372                             : en:Chapter 01
00:10:23.789                             : en:Chapter 02
00:14:19.275                             : en:Chapter 03
00:19:25.497                             : en:Chapter 04
00:25:11.218                             : en:Chapter 05
00:29:49.412                             : en:Chapter 06
00:35:50.815                             : en:Chapter 07
00:41:11.635                             : en:Chapter 08
00:46:29.536                             : en:Chapter 09
00:53:50.227                             : en:Chapter 10
00:57:44.794                             : en:Chapter 11
01:04:15.268                             : en:Chapter 12
01:08:48.499                             : en:Chapter 13
01:15:20.599                             : en:Chapter 14
01:18:50.642                             : en:Chapter 15
Світлини



2. Монстри на канікулах 2 / Hotel Transylvania 2 (2015) 1080p H.265 Ukr/Eng | Sub 2xUkr/Eng
Монстри на канікулах 2 / Hotel Transylvania 2 (2015) 1080p H.265 Ukr/Eng | Sub 2xUkr/Eng

Монстри на канікулах. Трилогія / Hotel Transylvania. Trilogy (2012-2018) 1080p H.265 Ukr/Eng | Sub Ukr/Eng


Жанр: анімація, комедія, фентезі
Країна: США
Кінокомпанія: Columbia Pictures, LStar Capital, Sony Pictures Animation
Режисер: Генндій Тартаковський
Актори: Адам Сендлер, Енді Семберґ, Селена Ґомес, Кевін Джеймс, Стів Бушемі, Девід Спейд, Кіґен-Майкл Кі, Ешер Блінкофф, Френ Дрешер, Моллі Шеннон Озвучили українською:

Сюжет:
Граф Дракула видає свою чарівну дочку заміж за хлопця зі світу людей, і у молодої «змішаної» пари народжується син. Стане ця дитина людиною чи вампіром?

Тривалість: 01:29:18
Якість:

Відео:
кодек: H.265 (HEVC)
розмір кадру: 1920 x 1036
бітрейт: 4 238 кб/с
бітова глибина: 10 біт

Увага! Перед завантаженням переконайтесь, що ваш пристрій відтворення (та/або ПЗ) підтримує H.265 (HEVC)

Аудіо # 1:
мова: українська
озвучення: професійне дубльоване
кодек: AC-3 2.0
бітрейт: 192 кб/с

Аудіо # 2:
мова: англійська
озвучення: оригінал
кодек: 5.1
бітрейт: 1510 кб/с

Аудіо # 3:
мова: англійська
озвучення: оригінал | Commentary with Director Genndy Tartakovsky
кодек: AC-3 2.0
бітрейт: 192 кб/с

Аудіо # 4:
мова: англійська
озвучення: оригінал | Commentary with Adam Sandler, Robert Smigel and Allen Covert
кодек: AC-3 2.0
бітрейт: 192 кб/с

Субтитри # 1-3: (Forced, Full from Netflix, Full from iTunes)
мова: українська
тип: програмні (м'які)
формат: *.srt

Субтитри # 4-10: (Full, SDH, SDH-Colored, Commentary by Genndy Tartakovsky, Commentary by Genndy Tartakovsky (SDH), Commentary with Adam Sandler, Robert Smigel and Allen Covert, Commentary with Adam Sandler, Robert Smigel and Allen Covert (SDH))
мова: англійська
тип: програмні (м'які)
формат: *.srt


Інформація про файл
Код:
General
Unique ID                                : 197945120529736218726085769034415446628 (0x94EAD7EF7156196FDC5CF88A0EE79A64)
Complete name                            : 2. Hotel Transylvania 2 (2015) 1080p H.265 [UKR_ENG] [Hurtom].
Format                                   :
Format version                           : Version 4
File size                                : 3.95 GiB
Duration                                 : 1 h 29 min
Overall bit rate                         : 6 333 kb/s
Movie name                               : Монстри на канікулах 2 / Hotel Transylvania 2 (2015)
Encoded date                             : UTC 2020-11-26 15:48:32
Writing application                      : v20.0.0 ('I Am The Sun') 64-bit
Writing library                          : libebml v1.3.5 + v1.4.8
Cover                                    : Yes
Attachments                              : Cover1.jpg / Cover.jpg

Video
ID                                       : 1
Format                                   : HEVC
Format/Info                              : High Efficiency Video Coding
Format profile                           : Main [email protected]@High
Codec ID                                 : V_MPEGH/ISO/HEVC
Duration                                 : 1 h 29 min
Bit rate                                 : 4 238 kb/s
Width                                    : 1 920 pixels
Height                                   : 1 036 pixels
Display aspect ratio                     : 1.85:1
Frame rate mode                          : Constant
Frame rate                               : 23.976 (24000/1001) FPS
Color space                              : YUV
Chroma subsampling                       : 4:2:0
Bit depth                                : 10 bits
Bits/(Pixel*Frame)                       : 0.089
Stream size                              : 2.64 GiB (67%)
Title                                    : Монстри на канікулах 2 / Hotel Transylvania 2 (2015)
Writing library                          : x265 2.8+19-bcdc610cf5f0:[Windows][GCC 7.3.0][64 bit] 10bit
Encoding settings                        : cpuid=1049583 / frame-threads=5 / numa-pools=4 / wpp / no-pmode / no-pme / no-psnr / no-ssim / log-level=3 / input-csp=1 / input-res=1920x1036 / interlace=0 / total-frames=0 / level-idc=41 / high-tier=1 / uhd-bd=0 / ref=5 / allow-non-conformance / no-repeat-headers / annexb / no-aud / no-hrd / info / hash=0 / no-temporal-layers / open-gop / min-keyint=24 / keyint=240 / gop-lookahead=0 / bframes=8 / b-adapt=2 / b-pyramid / bframe-bias=0 / rc-lookahead=40 / lookahead-slices=6 / scenecut=40 / radl=0 / no-intra-refresh / ctu=64 / min-cu-size=8 / no-rect / no-amp / max-tu-size=32 / tu-inter-depth=1 / tu-intra-depth=1 / limit-tu=0 / rdoq-level=0 / dynamic-rd=0.00 / no-ssim-rd / signhide / no-tskip / nr-intra=0 / nr-inter=0 / no-constrained-intra / strong-intra-smoothing / max-merge=2 / limit-refs=3 / no-limit-modes / me=3 / subme=7 / merange=57 / temporal-mvp / weightp / no-weightb / no-analyze-src-pics / deblock=-3:-3 / no-sao / no-sao-non-deblock / rd=3 / no-early-skip / rskip / no-fast-intra / no-tskip-fast / no-cu-lossless / no-b-intra / no-splitrd-skip / rdpenalty=0 / psy-rd=2.00 / psy-rdoq=0.00 / no-rd-refine / no-lossless / cbqpoffs=0 / crqpoffs=0 / rc=crf / crf=16.5 / qcomp=0.60 / qpstep=4 / stats-write=0 / stats-read=0 / vbv-maxrate=50000 / vbv-bufsize=50000 / vbv-init=0.9 / crf-max=0.0 / crf-min=0.0 / ipratio=1.40 / pbratio=1.30 / aq-mode=1 / aq-strength=1.00 / cutree / zone-count=0 / no-strict-cbr / qg-size=32 / no-rc-grain / qpmax=69 / qpmin=0 / no-const-vbv / sar=1 / overscan=0 / videoformat=5 / range=0 / colorprim=1 / transfer=1 / colormatrix=1 / chromaloc=0 / display-window=0 / max-cll=0,0 / min-luma=0 / max-luma=1023 / log2-max-poc-lsb=8 / vui-timing-info / vui-hrd-info / slices=1 / no-opt-qp-pps / no-opt-ref-list-length-pps / no-multi-pass-opt-rps / scenecut-bias=0.05 / no-opt-cu-delta-qp / no-aq-motion / no-hdr / no-hdr-opt / no-dhdr10-opt / no-idr-recovery-sei / analysis-reuse-level=5 / scale-factor=0 / refine-intra=0 / refine-inter=0 / refine-mv=0 / no-limit-sao / ctu-info=0 / no-lowpass-dct / refine-mv-type=0 / copy-pic=1 / max-ausize-factor=1.0 / no-dynamic-refine / no-single-sei
Language                                 : English
Default                                  : Yes
Forced                                   : No
Color range                              : Limited
Color primaries                          : BT.709
Transfer characteristics                 : BT.709
Matrix coefficients                      : BT.709

Audio #1
ID                                       : 2
Format                                   : AC-3
Format/Info                              : Audio Coding 3
Commercial name                          : Dolby Digital
Codec ID                                 : A_AC3
Duration                                 : 1 h 29 min
Bit rate mode                            : Constant
Bit rate                                 : 192 kb/s
Channel(s)                               : 2 channels
Channel layout                           : L R
Sampling rate                            : 48.0 kHz
Frame rate                               : 31.250 FPS (1536 SPF)
Compression mode                         : Lossy
Stream size                              : 123 MiB (3%)
Title                                    : AC-3 / 2.0 Ch / 192 kbps / DUB / iTunes
Language                                 : Ukrainian
Service kind                             : Complete Main
Default                                  : Yes
Forced                                   : Yes

Audio #2
ID                                       : 3
Format                                   :
Format/Info                              : Digital Theater Systems
Codec ID                                 : A_DTS
Duration                                 : 1 h 29 min
Bit rate mode                            : Constant
Bit rate                                 : 1 509 kb/s
Channel(s)                               : 6 channels
Channel layout                           : C L R Ls Rs LFE
Sampling rate                            : 48.0 kHz
Frame rate                               : 93.750 FPS (512 SPF)
Bit depth                                : 16 bits
Compression mode                         : Lossy
Stream size                              : 964 MiB (24%)
Title                                    : / 5.1 Ch / 1509 kbps / Original
Language                                 : English
Default                                  : No
Forced                                   : No

Audio #3
ID                                       : 4
Format                                   : AC-3
Format/Info                              : Audio Coding 3
Commercial name                          : Dolby Digital
Codec ID                                 : A_AC3
Duration                                 : 1 h 29 min
Bit rate mode                            : Constant
Bit rate                                 : 192 kb/s
Channel(s)                               : 2 channels
Channel layout                           : L R
Sampling rate                            : 48.0 kHz
Frame rate                               : 31.250 FPS (1536 SPF)
Compression mode                         : Lossy
Stream size                              : 123 MiB (3%)
Title                                    : AC-3 / 2.0 Ch / 192 kbps / Original / Commentary with Director Genndy Tartakovsky
Language                                 : English
Service kind                             : Complete Main
Default                                  : No
Forced                                   : No

Audio #4
ID                                       : 5
Format                                   : AC-3
Format/Info                              : Audio Coding 3
Commercial name                          : Dolby Digital
Codec ID                                 : A_AC3
Duration                                 : 1 h 29 min
Bit rate mode                            : Constant
Bit rate                                 : 192 kb/s
Channel(s)                               : 2 channels
Channel layout                           : L R
Sampling rate                            : 48.0 kHz
Frame rate                               : 31.250 FPS (1536 SPF)
Compression mode                         : Lossy
Stream size                              : 123 MiB (3%)
Title                                    : AC-3 / 2.0 Ch / 192 kbps / Original / Commentary with Adam Sandler, Robert Smigel and Allen Covert
Language                                 : English
Service kind                             : Complete Main
Default                                  : No
Forced                                   : No

Text #1
ID                                       : 6
Format                                   : UTF-8
Codec ID                                 : S_TEXT/UTF8
Codec ID/Info                            : UTF-8 Plain Text
Duration                                 : 1 h 18 min
Bit rate                                 : 0 b/s
Count of elements                        : 4
Stream size                              : 113 Bytes (0%)
Title                                    : Forced
Language                                 : Ukrainian
Default                                  : Yes
Forced                                   : Yes

Text #2
ID                                       : 7
Format                                   : UTF-8
Codec ID                                 : S_TEXT/UTF8
Codec ID/Info                            : UTF-8 Plain Text
Duration                                 : 1 h 27 min
Bit rate                                 : 110 b/s
Count of elements                        : 1107
Stream size                              : 70.9 KiB (0%)
Title                                    : Full from Netflix
Language                                 : Ukrainian
Default                                  : No
Forced                                   : No

Text #3
ID                                       : 8
Format                                   : UTF-8
Codec ID                                 : S_TEXT/UTF8
Codec ID/Info                            : UTF-8 Plain Text
Duration                                 : 1 h 18 min
Bit rate                                 : 119 b/s
Count of elements                        : 1106
Stream size                              : 69.0 KiB (0%)
Title                                    : Full from iTunes
Language                                 : Ukrainian
Default                                  : No
Forced                                   : No

Text #4
ID                                       : 9
Format                                   : UTF-8
Codec ID                                 : S_TEXT/UTF8
Codec ID/Info                            : UTF-8 Plain Text
Duration                                 : 1 h 18 min
Bit rate                                 : 69 b/s
Count of elements                        : 1300
Stream size                              : 39.8 KiB (0%)
Title                                    : Full
Language                                 : English
Default                                  : No
Forced                                   : No

Text #5
ID                                       : 10
Format                                   : UTF-8
Codec ID                                 : S_TEXT/UTF8
Codec ID/Info                            : UTF-8 Plain Text
Duration                                 : 1 h 19 min
Bit rate                                 : 75 b/s
Count of elements                        : 1486
Stream size                              : 43.7 KiB (0%)
Title                                    : SDH
Language                                 : English
Default                                  : No
Forced                                   : No

Text #6
ID                                       : 11
Format                                   : UTF-8
Codec ID                                 : S_TEXT/UTF8
Codec ID/Info                            : UTF-8 Plain Text
Duration                                 : 1 h 23 min
Bit rate                                 : 86 b/s
Count of elements                        : 1487
Stream size                              : 52.8 KiB (0%)
Title                                    : SDH-Colored
Language                                 : English
Default                                  : No
Forced                                   : No

Text #7
ID                                       : 12
Format                                   : UTF-8
Codec ID                                 : S_TEXT/UTF8
Codec ID/Info                            : UTF-8 Plain Text
Duration                                 : 1 h 21 min
Bit rate                                 : 104 b/s
Count of elements                        : 1390
Stream size                              : 62.3 KiB (0%)
Title                                    : Commentary by Genndy Tartakovsky
Language                                 : English
Default                                  : No
Forced                                   : No

Text #8
ID                                       : 13
Format                                   : UTF-8
Codec ID                                 : S_TEXT/UTF8
Codec ID/Info                            : UTF-8 Plain Text
Duration                                 : 1 h 21 min
Bit rate                                 : 110 b/s
Count of elements                        : 1447
Stream size                              : 65.7 KiB (0%)
Title                                    : Commentary by Genndy Tartakovsky (SDH)
Language                                 : English
Default                                  : No
Forced                                   : No

Text #9
ID                                       : 14
Format                                   : UTF-8
Codec ID                                 : S_TEXT/UTF8
Codec ID/Info                            : UTF-8 Plain Text
Duration                                 : 1 h 21 min
Bit rate                                 : 117 b/s
Count of elements                        : 1758
Stream size                              : 70.3 KiB (0%)
Title                                    : Commentary with Adam Sandler, Robert Smigel and Allen Covert
Language                                 : English
Default                                  : No
Forced                                   : No

Text #10
ID                                       : 15
Format                                   : UTF-8
Codec ID                                 : S_TEXT/UTF8
Codec ID/Info                            : UTF-8 Plain Text
Duration                                 : 1 h 21 min
Bit rate                                 : 134 b/s
Count of elements                        : 1804
Stream size                              : 80.5 KiB (0%)
Title                                    : Commentary with Adam Sandler, Robert Smigel and Allen Covert (SDH)
Language                                 : English
Default                                  : No
Forced                                   : No

Menu
00:00:00.000                             : en:Chapter 1
00:05:46.471                             : en:Chapter 2
00:09:17.640                             : en:Chapter 3
00:13:09.705                             : en:Chapter 4
00:19:29.126                             : en:Chapter 5
00:22:42.569                             : en:Chapter 6
00:30:05.303                             : en:Chapter 7
00:36:12.712                             : en:Chapter 8
00:40:00.981                             : en:Chapter 9
00:45:54.376                             : en:Chapter 10
00:51:22.454                             : en:Chapter 11
00:56:54.911                             : en:Chapter 12
01:04:01.921                             : en:Chapter 13
01:08:32.817                             : en:Chapter 14
01:13:29.405                             : en:Chapter 15
01:18:35.877                             : en:Chapter 16
Світлини



3. Монстри на канікулах 3 / Hotel Transylvania 3: Summer Vacation (2018) 1080p H.265 Ukr/Eng | Sub 2xUkr/Eng
Монстри на канікулах 3 / Hotel Transylvania 3: Summer Vacation (2018) 1080p H.265 Ukr/Eng | Sub 2xUkr/Eng

Монстри на канікулах. Трилогія / Hotel Transylvania. Trilogy (2012-2018) 1080p H.265 Ukr/Eng | Sub Ukr/Eng


Жанр: комедія, мультфільм, сімейний, фентезі
Країна: США
Кінокомпанія: Columbia Pictures Corporation,Media Rights Capital (MRC),Sony Pictures Animation
Режисер: Дженнді Тартаковські
Актори:Мел Брукс, Адам Сендлер, Селена Гомес, Енді Семберг, Кетрін Ган, Френ Дрешер, Стів Бушемі, Девід Спейд, Тара Стронг, Кіген-Майкл Кі

Сюжет:
Дракула разом з Мевіс, Джонні, Деннісом і своїми друзями відправляється в шикарний круїз на лайнері для монстрів. На його борту вампір зустрічає загадкового капітана Еріку, в яку тут же закохується, не підозрюючи, що вона є нащадком самого Абрахама Ван Хельсинга, давнього ворога Дракули та всіх монстрів.

Тривалість: 01:37:23
Якість:

Відео:
кодек: H.265 (HEVC)
розмір кадру: 1920 x 1036
бітрейт: 5 124 кб/с
бітова глибина: 10 біт

Увага! Перед завантаженням переконайтесь, що ваш пристрій відтворення (та/або ПЗ) підтримує H.265 (HEVC)

Аудіо # 1:
мова: українська
озвучення: професійне дубльоване
кодек: AC-3 5.1
бітрейт: 640 кб/с

Аудіо # 2:
мова: англійська
озвучення: оригінал
кодек: 5.1
бітрейт: 1510 кб/с

Аудіо # 3:
мова: англійська
озвучення: оригінал | Commentary
кодек: AC-3 2.0
бітрейт: 192 кб/с

Субтитри # 1-2: (Forced, Full from iTunes, Netflix)
мова: українська
тип: програмні (м'які)
формат: *.srt

Субтитри # 3-5: (Full, SDH, SDH-Colored)
мова: англійська
тип: програмні (м'які)
формат: *.srt


Інформація про файл
Код:
General
Unique ID                                : 60421920773727165043106108878840381834 (0x2D74D6B1DE3A24EE19FAD9F0E8B7C18A)
Complete name                            : 3. Hotel Transylvania 3. Summer Vacation (2018) 1080p H.265 [UKR_ENG] [Hurtom].
Format                                   :
Format version                           : Version 4
File size                                : 5.08 GiB
Duration                                 : 1 h 37 min
Overall bit rate                         : 7 471 kb/s
Movie name                               : Монстри на канікулах 3 / Hotel Transylvania 3: Summer Vacation (2018)
Encoded date                             : UTC 2020-11-26 15:51:05
Writing application                      : v20.0.0 ('I Am The Sun') 64-bit
Writing library                          : libebml v1.3.5 + v1.4.8
Cover                                    : Yes
Attachments                              : Cover.jpg

Video
ID                                       : 1
Format                                   : HEVC
Format/Info                              : High Efficiency Video Coding
Format profile                           : Main [email protected]@High
Codec ID                                 : V_MPEGH/ISO/HEVC
Duration                                 : 1 h 37 min
Bit rate                                 : 5 124 kb/s
Width                                    : 1 920 pixels
Height                                   : 1 036 pixels
Display aspect ratio                     : 1.85:1
Frame rate mode                          : Constant
Frame rate                               : 23.976 (24000/1001) FPS
Color space                              : YUV
Chroma subsampling                       : 4:2:0
Bit depth                                : 10 bits
Bits/(Pixel*Frame)                       : 0.107
Stream size                              : 3.49 GiB (69%)
Title                                    : Монстри на канікулах 3 / Hotel Transylvania 3: Summer Vacation (2018)
Writing library                          : x265 2.8+19-bcdc610cf5f0:[Windows][GCC 7.3.0][64 bit] 10bit
Encoding settings                        : cpuid=1049583 / frame-threads=5 / numa-pools=4 / wpp / no-pmode / no-pme / no-psnr / no-ssim / log-level=3 / input-csp=1 / input-res=1920x1036 / interlace=0 / total-frames=0 / level-idc=41 / high-tier=1 / uhd-bd=0 / ref=5 / allow-non-conformance / no-repeat-headers / annexb / no-aud / no-hrd / info / hash=0 / no-temporal-layers / open-gop / min-keyint=24 / keyint=240 / gop-lookahead=0 / bframes=8 / b-adapt=2 / b-pyramid / bframe-bias=0 / rc-lookahead=40 / lookahead-slices=6 / scenecut=40 / radl=0 / no-intra-refresh / ctu=64 / min-cu-size=8 / no-rect / no-amp / max-tu-size=32 / tu-inter-depth=1 / tu-intra-depth=1 / limit-tu=0 / rdoq-level=0 / dynamic-rd=0.00 / no-ssim-rd / signhide / no-tskip / nr-intra=0 / nr-inter=0 / no-constrained-intra / strong-intra-smoothing / max-merge=2 / limit-refs=3 / no-limit-modes / me=3 / subme=7 / merange=57 / temporal-mvp / weightp / no-weightb / no-analyze-src-pics / deblock=-3:-3 / no-sao / no-sao-non-deblock / rd=3 / no-early-skip / rskip / no-fast-intra / no-tskip-fast / no-cu-lossless / no-b-intra / no-splitrd-skip / rdpenalty=0 / psy-rd=2.00 / psy-rdoq=0.00 / no-rd-refine / no-lossless / cbqpoffs=0 / crqpoffs=0 / rc=crf / crf=16.5 / qcomp=0.60 / qpstep=4 / stats-write=0 / stats-read=0 / vbv-maxrate=50000 / vbv-bufsize=50000 / vbv-init=0.9 / crf-max=0.0 / crf-min=0.0 / ipratio=1.40 / pbratio=1.30 / aq-mode=1 / aq-strength=1.00 / cutree / zone-count=0 / no-strict-cbr / qg-size=32 / no-rc-grain / qpmax=69 / qpmin=0 / no-const-vbv / sar=1 / overscan=0 / videoformat=5 / range=0 / colorprim=1 / transfer=1 / colormatrix=1 / chromaloc=0 / display-window=0 / max-cll=0,0 / min-luma=0 / max-luma=1023 / log2-max-poc-lsb=8 / vui-timing-info / vui-hrd-info / slices=1 / no-opt-qp-pps / no-opt-ref-list-length-pps / no-multi-pass-opt-rps / scenecut-bias=0.05 / no-opt-cu-delta-qp / no-aq-motion / no-hdr / no-hdr-opt / no-dhdr10-opt / no-idr-recovery-sei / analysis-reuse-level=5 / scale-factor=0 / refine-intra=0 / refine-inter=0 / refine-mv=0 / no-limit-sao / ctu-info=0 / no-lowpass-dct / refine-mv-type=0 / copy-pic=1 / max-ausize-factor=1.0 / no-dynamic-refine / no-single-sei
Language                                 : English
Default                                  : Yes
Forced                                   : No
Color range                              : Limited
Color primaries                          : BT.709
Transfer characteristics                 : BT.709
Matrix coefficients                      : BT.709

Audio #1
ID                                       : 2
Format                                   : AC-3
Format/Info                              : Audio Coding 3
Commercial name                          : Dolby Digital
Codec ID                                 : A_AC3
Duration                                 : 1 h 37 min
Bit rate mode                            : Constant
Bit rate                                 : 640 kb/s
Channel(s)                               : 6 channels
Channel layout                           : L R C LFE Ls Rs
Sampling rate                            : 48.0 kHz
Frame rate                               : 31.250 FPS (1536 SPF)
Compression mode                         : Lossy
Stream size                              : 446 MiB (9%)
Title                                    : AC-3 / 5.1 Ch / 640 kbps / DUB / Blu-Ray
Language                                 : Ukrainian
Service kind                             : Complete Main
Default                                  : Yes
Forced                                   : Yes

Audio #2
ID                                       : 3
Format                                   :
Format/Info                              : Digital Theater Systems
Codec ID                                 : A_DTS
Duration                                 : 1 h 37 min
Bit rate mode                            : Constant
Bit rate                                 : 1 509 kb/s
Channel(s)                               : 6 channels
Channel layout                           : C L R Ls Rs LFE
Sampling rate                            : 48.0 kHz
Frame rate                               : 93.750 FPS (512 SPF)
Bit depth                                : 24 bits
Compression mode                         : Lossy
Stream size                              : 1.03 GiB (20%)
Title                                    : / 5.1 Ch / 1509 kbps / Original
Language                                 : English
Default                                  : No
Forced                                   : No

Audio #3
ID                                       : 4
Format                                   : AC-3
Format/Info                              : Audio Coding 3
Commercial name                          : Dolby Digital
Codec ID                                 : A_AC3
Duration                                 : 1 h 37 min
Bit rate mode                            : Constant
Bit rate                                 : 192 kb/s
Channel(s)                               : 2 channels
Channel layout                           : L R
Sampling rate                            : 48.0 kHz
Frame rate                               : 31.250 FPS (1536 SPF)
Compression mode                         : Lossy
Stream size                              : 134 MiB (3%)
Title                                    : AC-3 / 2.0 Ch / 192 kbps / Original / Commentary
Language                                 : English
Service kind                             : Complete Main
Default                                  : No
Forced                                   : No

Text #1
ID                                       : 5
Format                                   : UTF-8
Codec ID                                 : S_TEXT/UTF8
Codec ID/Info                            : UTF-8 Plain Text
Duration                                 : 1 h 26 min
Bit rate                                 : 0 b/s
Count of elements                        : 4
Stream size                              : 93.0 Bytes (0%)
Title                                    : Forced
Language                                 : Ukrainian
Default                                  : Yes
Forced                                   : Yes

Text #2
ID                                       : 6
Format                                   : UTF-8
Codec ID                                 : S_TEXT/UTF8
Codec ID/Info                            : UTF-8 Plain Text
Duration                                 : 1 h 36 min
Bit rate                                 : 71 b/s
Count of elements                        : 1118
Stream size                              : 50.4 KiB (0%)
Title                                    : Full from iTunes, Netflix
Language                                 : Ukrainian
Default                                  : No
Forced                                   : No

Text #3
ID                                       : 7
Format                                   : UTF-8
Codec ID                                 : S_TEXT/UTF8
Codec ID/Info                            : UTF-8 Plain Text
Duration                                 : 1 h 26 min
Bit rate                                 : 48 b/s
Count of elements                        : 1168
Stream size                              : 30.7 KiB (0%)
Title                                    : Full
Language                                 : English
Default                                  : No
Forced                                   : No

Text #4
ID                                       : 8
Format                                   : UTF-8
Codec ID                                 : S_TEXT/UTF8
Codec ID/Info                            : UTF-8 Plain Text
Duration                                 : 1 h 30 min
Bit rate                                 : 67 b/s
Count of elements                        : 1650
Stream size                              : 44.7 KiB (0%)
Title                                    : SDH
Language                                 : English
Default                                  : No
Forced                                   : No

Text #5
ID                                       : 9
Format                                   : UTF-8
Codec ID                                 : S_TEXT/UTF8
Codec ID/Info                            : UTF-8 Plain Text
Duration                                 : 1 h 30 min
Bit rate                                 : 125 b/s
Count of elements                        : 1650
Stream size                              : 83.3 KiB (0%)
Title                                    : SDH-Colored
Language                                 : English
Default                                  : No
Forced                                   : No

Menu #1
00:00:00.000                             : en:Chapter 01
00:04:28.935                             : en:Chapter 02
00:09:34.823                             : en:Chapter 03
00:16:02.043                             : en:Chapter 04
00:20:03.076                             : en:Chapter 05
00:24:34.931                             : en:Chapter 06
00:31:12.537                             : en:Chapter 07
00:36:49.206                             : en:Chapter 08
00:44:04.724                             : en:Chapter 09
00:49:57.702                             : en:Chapter 10
00:54:49.743                             : en:Chapter 11
01:00:34.880                             : en:Chapter 12
01:06:12.009                             : en:Chapter 13
01:10:32.269                             : en:Chapter 14
01:13:46.380                             : en:Chapter 15
01:24:56.548                             : en:Chapter 16

Menu #2
00:00:00.000                             : en:Chapter 01
00:04:28.935                             : en:Chapter 02
00:09:34.823                             : en:Chapter 03
00:16:02.043                             : en:Chapter 04
00:20:03.076                             : en:Chapter 05
00:24:34.931                             : en:Chapter 06
00:31:12.537                             : en:Chapter 07
00:36:49.206                             : en:Chapter 08
00:44:04.724                             : en:Chapter 09
00:49:57.702                             : en:Chapter 10
00:54:49.743                             : en:Chapter 11
01:00:34.880                             : en:Chapter 12
01:06:12.009                             : en:Chapter 13
01:10:32.269                             : en:Chapter 14
01:13:46.380                             : en:Chapter 15
01:24:56.548                             : en:Chapter 16
Світлини




Джерело: &
Особиста оцінка: 10 - без зайвих вагань рекомендую всім!

Подяка пану leicheman за надані укр. субтитри.


Бронзовий реліз (на рейтинг впливає 75% завантаженого)
 Трекер:    Зареєстрований   

Завантажити / скачати мультфільм українською



відео для новачків



 Зареєстрований:   2020-11-26 18:10
 Розмір:   13.94 GB 
 Оцінка мультфільму:   9.8/10 (Голосів: 57)
   
Anonymous 







2018-12-19 16:17  
Оновлення!
Marynochka 
Новенький


З нами з: 13.12.12
Востаннє: 25.12.20
Повідомлень: 5

2018-12-24 14:46  
Ну чого перша частина на толоці тільки в ? У мене двд плеєр читає з флешки тільки avi формат. А тут десяток роздач на толоці і всі . (((
Anonymous 







2020-11-26 18:10  
Додано багато субтитрів та коментарів.
f1lia 
Свій


З нами з: 25.02.15
Востаннє: 02.03.21
Повідомлень: 59

2021-02-17 21:03  
Тільки в мене третя частина проблеми з центральним каналом?
Ваш часовий пояс: GMT + 2 Години

Нова тема   Відповісти