Пластикова сестричка / Plastic Neesan (2011) 1080p Jap | Sub Ukr

Нові коментарі

Нова тема   Відповісти
Останній раз роздавалося Konstantin_Exorcist (2019-02-17)
Автор Повідомлення
Konstantin_Exorcist 
Свій


З нами з: 18.11.14
Востаннє: 16.02.19
Повідомлень: 89

2018-10-02 10:24  
Пластикова сестричка / Plastic Neesan (2011) 1080p Jap | Sub Ukr

Пластикова сестричка / Plastic Neesan (2011) 1080p Jap | Sub Ukr


Жанр: Комедія, Сейнен, Школа
Країна: Японія



Кінокомпанія: TYO Animations
Режисер: Мідзушіма Цутому
Актори: Кано Марі, Учіяма Юмі, Іное Маріна, Таніяма Кішоу, Курата Масайо, Акабе Кенджі, Ізава Шіорі, Сайто Чіва, Саотоме Юка, Канбара Даічі

Сюжет:
Ірое Ґенма - третьокурсниця старшої школи, яку часто називають «Старшою сестрою», незважаючи на її невеликий зріст. Ця ходяча проблема, президент клубу Моделювання, який робить пластикові моделі усього на світі, від машин і літаків, до танків і роботів.

Підсилена двома посіпаками, жорстокою Хазукі «Окаппа» Окамото і розсудливою Макіною «Макімакі» Сакамакі, маленька команда з честю виконує свої обов’язки в клубі, паралельно встромляючи свого носа куди тільки можна і не можна. Від бійки між учасницями клубу до уроків зваблювання, ця трійця встряне в усі халепи і негаразди, які лише знайде.


Тривалість: 27:19
Якість:
Відео:
кодек:
розмір кадру: 1920 х 1080
бітрейт: 1684 кб/с

Аудіо:
мова: японська
переклад: оригінал
кодек: 2.0
бітрейт: 747 кб/с

Субтитри:
мова: українська
тип: програмні (м'які)
формат: *.

Переклад і субтитри: Костянтин Hitler
Info
General
Unique ID : 245087522393658561326821705088808532971 (0xB86223CC61A26056F2A7A27538883BEB)
Complete name : G:\Фільми\Аніме\Пластикова Сестричка - Plastic Nee-san (BD 1920x1080 10-bit ).
Format :
Format version : Version 4 / Version 2
File size : 488 MiB
Duration : 27 min 19 s
Overall bit rate mode : Variable
Overall bit rate : 2 499 kb/s
Encoded date : UTC 2018-10-02 08:01:53
Writing application : v25.0.0 ('Prog Noir') 64-bit
Writing library : libebml v1.3.6 + v1.4.9
Attachments : Calibri.ttf / BRADHITC.TTF / BRLNSB.TTF / BRLNSDB.TTF / BRLNSR.TTF / QuattrocentoSans-Bold.ttf / QuattrocentoSans-BoldItalic.ttf / Volkswagen-Serial-Black-Regular.ttf / 2438.ttf / AdobeHeitiStd-Regular.otf / ANNA_0.ttf / A-OTF-GothicMB101Pro-NazoKano_1.ttf

Video
ID : 1
Format : AVC
Format/Info : Advanced Video Codec
Format profile : High [email protected]
Format settings : CABAC / 5 Ref Frames
Format settings, CABAC : Yes
Format settings, ReFrames : 5 frames
Codec ID : V_MPEG4/ISO/AVC
Duration : 27 min 19 s
Bit rate : 1 684 kb/s
Width : 1 920 pixels
Height : 1 080 pixels
Display aspect ratio : 16:9
Frame rate mode : Constant
Frame rate : 23.976 (24000/1001) FPS
Color space : YUV
Chroma subsampling : 4:2:0
Bit depth : 10 bits
Scan type : Progressive
Bits/(Pixel*Frame) : 0.034
Stream size : 329 MiB (67%)
Writing library : core 129 r2245 bc13772
Encoding settings : cabac=1 / ref=5 / deblock=1:0:0 / analyse=0x3:0x133 / me=umh / subme=10 / psy=1 / psy_rd=1.00:0.00 / mixed_ref=1 / me_range=24 / chroma_me=1 / trellis=2 / 8x8dct=1 / cqm=0 / deadzone=21,11 / fast_pskip=1 / chroma_qp_offset=-2 / threads=16 / lookahead_threads=2 / sliced_threads=0 / nr=0 / decimate=1 / interlaced=0 / bluray_compat=0 / constrained_intra=0 / bframes=10 / b_pyramid=2 / b_adapt=2 / b_bias=0 / direct=3 / weightb=1 / open_gop=0 / weightp=2 / keyint=240 / keyint_min=23 / scenecut=40 / intra_refresh=0 / rc_lookahead=60 / rc=crf / mbtree=1 / crf=18.0 / qcomp=0.60 / qpmin=0 / qpmax=81 / qpstep=4 / ip_ratio=1.40 / aq=1:0.60
Language : English
Default : Yes
Forced : No

Audio
ID : 2
Format :
Format/Info : Free Lossless Audio Codec
Codec ID : A_FLAC
Duration : 27 min 19 s
Bit rate mode : Variable
Bit rate : 747 kb/s
Channel(s) : 2 channels
Channel layout : L R
Sampling rate : 48.0 kHz
Frame rate : 11.719 FPS (4096 SPF)
Bit depth : 16 bits
Compression mode : Lossless
Stream size : 146 MiB (30%)
Title : Japanese
Writing library : libFLAC 1.2.1 (UTC 2007-09-17)
Language : Japanese
Default : Yes
Forced : Yes

Text
ID : 3
Format :
Codec ID : S_TEXT/
Codec ID/Info : Advanced Sub Station Alpha
Duration : 26 min 55 s
Bit rate : 300 b/s
Count of elements : 663
Compression mode : Lossless
Stream size : 59.3 KiB (0%)
Title : Повні (Костянтин Hitler)
Language : Ukrainian
Default : Yes
Forced : Yes

Menu
00:00:00.000 : :Opening
00:01:31.257 : :Fight-tic
00:03:24.370 : :Intimate Friend-tic
00:05:28.995 : :Kiss-tic
00:07:12.098 : :Beauty-tic
00:09:06.212 : :Love Story-tic
00:10:48.814 : :Mochi-tic
00:12:58.944 : :Recovery-tic
00:14:31.036 : :Resolution-tic
00:17:27.212 : :Making Up-tic
00:18:58.303 : :Aspiration-tic
00:20:53.418 : :The tennis princess-tic
00:23:29.574 : Wide grino not bother me-tic
00:25:41.706 : :Ending
00:27:18.470 : :End
Скріншоти




Джерело:
Постер: Otaku-First
Особиста оцінка: 10 - без зайвих вагань рекомендую всім!


Золотий реліз (завантажене не впливає на рейтинг)
 Трекер:    Зареєстрований   

Завантажити / скачати аніме українською



відео для новачків



 Зареєстрований:   2018-10-02 10:24
 Розмір:   488 MB 
 Оцінка аніме:   7.4/10 (Голосів: 5)
   
ssTAss 
Модератор музики


З нами з: 05.07.08
Востаннє: 17.02.19
Повідомлень: 14670

2018-10-02 10:54  
Konstantin_Exorcist написано:
Пластикава сестричка / Plastic Neesan

ПластикОва

Konstantin_Exorcist 
Свій


З нами з: 18.11.14
Востаннє: 16.02.19
Повідомлень: 89

2018-10-02 11:52  
ssTAss
Так, дякую. Виправив.

Electroz 
Відео Гуртом - підтримка та поширення
Відео Гуртом - підтримка та поширення


З нами з: 18.09.14
Востаннє: 17.02.19
Повідомлень: 3214

2018-10-02 14:28  
Konstantin_Exorcist
Мінімум один скріншот повинен бути із субтитрами.

hetzendorf 
Відео Гуртом - підтримка та поширення
Відео Гуртом - підтримка та поширення


З нами з: 23.07.15
Востаннє: 17.02.19
Повідомлень: 1848

2018-10-02 23:16  
Така ржачна милота, просто клас!
9/10

Konstantin_Exorcist 
Свій


З нами з: 18.11.14
Востаннє: 16.02.19
Повідомлень: 89

2018-10-04 10:08  
hetzendorf
Радий, що сподобався Happy

EvGaS 
Попереджень: 1
Попереджень: 1 


З нами з: 27.02.12
Востаннє: 17.02.19
Повідомлень: 5555

2018-10-04 15:45  
Варто уважніше узгоджувати/перечитувати текст: спочатку то фотоапарат, у наступній же ж репліці то щось жіночого роду. Трапилось ще на самому початку. Sad (1)
Konstantin_Exorcist 
Свій


З нами з: 18.11.14
Востаннє: 16.02.19
Повідомлень: 89

2018-10-04 19:36  
EvGaS
Хм, дійсно. Там мала бути "фотокамера", не розумію чого так і залишилось.

Ваш часовий пояс: GMT + 2 Години

Нова тема   Відповісти