Загадкова справа Бенджаміна Баттона / The Curious Case of Benjamin Button (2008) 1080p H.265 Ukr/Eng | Sub Eng

Нові коментарі

Нова тема   Відповісти
Автор Повідомлення
-Star-Lord- 
Поважний учасник


З нами з: 09.08.18
Востаннє: 19.10.18
Повідомлень: 210

2018-10-02 10:50  
Загадкова справа Бенджаміна Баттона / The Curious Case of Benjamin Button (2008) 1080p H.265 Ukr/Eng | Sub Eng

Загадкова справа Бенджаміна Баттона / The Curious Case of Benjamin Button (2008) 1080p H.265 Ukr/Eng | Sub Eng


«I was born under unusual circumstances.»


Жанр: фантастика, драма, містика
Країна: США



Кінокомпанія: Warner Brothers, The Kennedy/Marshall Company
Режисер: Девід Фінчер
Актори: Бред Пітт, Кейт Бланшетт, Джулія Ормонд, Фаун А. Чемберс, Еліас Котеас, Донна Дю Плантьє, Джейкоб Вуд, Ерл Меддокс, Ед Метцгер, Джейсон Флемінг, Денні Вінсон, Девід Дженсен, Джоанна Сейлер, Махершалалхашбаз Алі, Фіона Хейл, Патрік О'Брайн, Денні Нельсон, Пітер Дональд Бадаламенті II, Паула Грей

Сюжет:
Фільм про чоловіка, який народився у віці 80-ти років, а потім, почав молодіти. Ця людина, як і кожен з нас, не могла зупинити час. Його шлях в ХХI столітті, що бере свій початок в Новому Орлеані в 1918-му році в кінці Першої Світової війни, буде такий незвичайний, що навряд чи міг мати місце в житті кого-небудь іншого. Фільм оповідає про долю унікальної людини, про людей і події, що чекають його попереду, про любов, яку він знайде і втратить, про радощі життя і смутку втрат і про те, що залишається з нами поза часом.


Тривалість: 02:46:02
Якість:
Відео:
кодек: H.265 (HEVC)
розмір кадру: 1914 х 800
бітрейт: 7 420 кб/с
бітова глибина: 10 біт
Увага! Перед завантаженням переконайтесь, що ваш пристрій відтворення (та/або ПЗ) підтримує H.265 (HEVC)

Аудіо # 1:
мова: українська
переклад: професійний дубльований
кодек: 5.1
бітрейт: 640 кб/с

Аудіо # 2:
мова: англійська
переклад: оригінал
кодек: 5.1
бітрейт: 448 кб/с

Субтитри # 1 (Forced):
мова: українська
тип: програмні (м'які)
формат: *.srt

Субтитри # 2:
мова: англійська
тип: програмні (м'які)
формат: *.


Info
Код:
General
Unique ID                                : 97014832806712144450068495899742517140 (0x48FC608D3E89B77E2F436D581C813794)
Complete name                            : F:\Video\The Curious Case of Benjamin Button (2008) 1080p H.265 [UKR_ENG].
Format                                   :
Format version                           : Version 4 / Version 2
File size                                : 9.87 GiB
Duration                                 : 2 h 46 min
Overall bit rate                         : 8 510 kb/s
Movie name                               : Curious Case of Benjamin Button (2008)
Encoded date                             : UTC 2018-10-01 18:31:04
Writing application                      : v20.0.0 ('I Am The Sun') 32-bit
Writing library                          : libebml v1.3.5 + v1.4.8
Cover                                    : Yes
Attachments                              : Cover.jpg

Video
ID                                       : 1
Format                                   : HEVC
Format/Info                              : High Efficiency Video Coding
Format profile                           : Main [email protected]@Main
Codec ID                                 : V_MPEGH/ISO/HEVC
Duration                                 : 2 h 46 min
Bit rate                                 : 7 420 kb/s
Width                                    : 1 914 pixels
Height                                   : 800 pixels
Display aspect ratio                     : 2.40:1
Frame rate mode                          : Constant
Frame rate                               : 23.976 (24000/1001) FPS
Color space                              : YUV
Chroma subsampling                       : 4:2:0
Bit depth                                : 10 bits
Bits/(Pixel*Frame)                       : 0.202
Stream size                              : 8.61 GiB (87%)
Writing library                          : x265 2.8+69-856f056d392e:[Windows][GCC 6.3.0][64 bit] 10bit
Encoding settings                        : cpuid=1111039 / frame-threads=16 / numa-pools=8,8,8,8 / wpp / no-pmode / no-pme / no-psnr / no-ssim / log-level=2 / input-csp=1 / input-res=1914x800 / interlace=0 / total-frames=238873 / level-idc=41 / high-tier=0 / uhd-bd=0 / ref=5 / no-allow-non-conformance / no-repeat-headers / annexb / no-aud / no-hrd / info / hash=0 / no-temporal-layers / no-open-gop / min-keyint=1 / keyint=250 / gop-lookahead=0 / bframes=8 / b-adapt=2 / b-pyramid / bframe-bias=0 / rc-lookahead=80 / lookahead-slices=4 / scenecut=40 / radl=0 / no-intra-refresh / ctu=16 / min-cu-size=8 / no-rect / no-amp / max-tu-size=8 / tu-inter-depth=3 / tu-intra-depth=3 / limit-tu=4 / rdoq-level=2 / dynamic-rd=0.00 / no-ssim-rd / signhide / no-tskip / nr-intra=0 / nr-inter=0 / no-constrained-intra / no-strong-intra-smoothing / max-merge=5 / limit-refs=0 / limit-modes / me=3 / subme=5 / merange=92 / temporal-mvp / weightp / no-weightb / no-analyze-src-pics / deblock=0:0 / no-sao / no-sao-non-deblock / rd=4 / no-early-skip / rskip / no-fast-intra / no-tskip-fast / no-cu-lossless / b-intra / no-splitrd-skip / rdpenalty=0 / psy-rd=2.00 / psy-rdoq=1.00 / no-rd-refine / no-lossless / cbqpoffs=0 / crqpoffs=0 / rc=abr / bitrate=7419 / qcomp=0.60 / qpstep=4 / stats-write=0 / stats-read=2 / cplxblur=20.0 / qblur=0.5 / ipratio=1.40 / pbratio=1.30 / aq-mode=1 / aq-strength=1.00 / cutree / zone-count=0 / no-strict-cbr / qg-size=8 / no-rc-grain / qpmax=69 / qpmin=0 / no-const-vbv / sar=1 / overscan=0 / videoformat=5 / range=0 / colorprim=1 / transfer=1 / colormatrix=1 / chromaloc=0 / display-window=0 / max-cll=0,0 / min-luma=0 / max-luma=1023 / log2-max-poc-lsb=8 / vui-timing-info / vui-hrd-info / slices=1 / no-opt-qp-pps / no-opt-ref-list-length-pps / no-multi-pass-opt-rps / scenecut-bias=0.05 / no-opt-cu-delta-qp / no-aq-motion / no-hdr / no-hdr-opt / no-dhdr10-opt / no-idr-recovery-sei / analysis-reuse-level=5 / scale-factor=0 / refine-intra=0 / refine-inter=0 / refine-mv=0 / no-limit-sao / ctu-info=0 / no-lowpass-dct / refine-mv-type=0 / copy-pic=1 / max-ausize-factor=1.0 / no-dynamic-refine / no-single-sei
Default                                  : Yes
Forced                                   : No
Color range                              : Limited
Color primaries                          : BT.709
Transfer characteristics                 : BT.709
Matrix coefficients                      : BT.709

Audio #1
ID                                       : 2
Format                                   : AC-3
Format/Info                              : Audio Coding 3
Codec ID                                 : A_AC3
Duration                                 : 2 h 46 min
Bit rate mode                            : Constant
Bit rate                                 : 640 kb/s
Channel(s)                               : 6 channels
Channel positions                        : Front: L C R, Side: L R, LFE
Sampling rate                            : 48.0 kHz
Frame rate                               : 31.250 FPS (1536 SPF)
Bit depth                                : 16 bits
Compression mode                         : Lossy
Delay relative to video                  : 3 ms
Stream size                              : 760 MiB (8%)
Title                                    : 5.1 @ 640 Дубляж
Language                                 : Ukrainian
Service kind                             : Complete Main
Default                                  : Yes
Forced                                   : No

Audio #2
ID                                       : 3
Format                                   : AC-3
Format/Info                              : Audio Coding 3
Codec ID                                 : A_AC3
Duration                                 : 2 h 46 min
Bit rate mode                            : Constant
Bit rate                                 : 448 kb/s
Channel(s)                               : 6 channels
Channel positions                        : Front: L C R, Side: L R, LFE
Sampling rate                            : 48.0 kHz
Frame rate                               : 31.250 FPS (1536 SPF)
Bit depth                                : 16 bits
Compression mode                         : Lossy
Stream size                              : 532 MiB (5%)
Title                                    : Original
Language                                 : English
Service kind                             : Complete Main
Default                                  : No
Forced                                   : No

Text #1
ID                                       : 4
Format                                   : UTF-8
Codec ID                                 : S_TEXT/UTF8
Codec ID/Info                            : UTF-8 Plain Text
Duration                                 : 2 h 8 min
Bit rate                                 : 0 b/s
Count of elements                        : 8
Stream size                              : 273 Bytes (0%)
Title                                    : Написи та ін.
Language                                 : Ukrainian
Default                                  : Yes
Forced                                   : Yes

Text #2
ID                                       : 5
Format                                   :
Codec ID                                 : S_TEXT/
Codec ID/Info                            : Advanced Sub Station Alpha
Duration                                 : 2 h 38 min
Bit rate                                 : 95 b/s
Count of elements                        : 1801
Compression mode                         : Lossless
Stream size                              : 111 KiB (0%)
Language                                 : English
Default                                  : No
Forced                                   : No

Menu
00:00:00.000                             : en:Chapter 01
00:06:23.466                             : en:Chapter 02
00:17:54.448                             : en:Chapter 03
00:31:11.953                             : en:Chapter 04
00:41:32.406                             : en:Chapter 05
00:59:20.139                             : en:Chapter 06
01:16:41.763                             : en:Chapter 07
01:24:23.683                             : en:Chapter 08
01:35:07.952                             : en:Chapter 09
01:44:37.521                             : en:Chapter 10
01:51:44.656                             : en:Chapter 11
01:59:22.613                             : en:Chapter 12
02:11:24.960                             : en:Chapter 13
02:21:33.443                             : en:Chapter 14
02:31:12.021                             : en:Chapter 15
02:39:16.171                             : en:Chapter 16
Скріншоти




Джерело:
Особиста оцінка: 10 - без зайвих вагань рекомендую всім!


 Трекер:    Зареєстрований   

Завантажити / скачати фільм українською



відео для новачків



 Зареєстрований:   2018-10-02 10:50
 Розмір:   9.87 GB 
 Оцінка фільму:   10/10 (Голосів: 3)
   
Ваш часовий пояс: GMT + 2 Години

Нова тема   Відповісти