Грай, як Бекхем / Bend It Like Beckham (2002) 720p Ukr/Eng | Sub Eng

Нові коментарі

Нова тема   Відповісти
Автор Повідомлення
Anonymous 







2018-10-02 09:48  
Грай, як Бекхем / Bend It Like Beckham (2002) 720p Ukr/Eng | Sub Eng

Грай, як Бекхем / Bend It Like Beckham (2002) 720p Ukr/Eng | Sub Eng


Жанр: комедія, драма, романтичний, спорт
Країна: Велика Британія, Німеччина, США



Кінокомпанія: Kintop Pictures, Film Council, Filmförderung Hamburg
Режисер: Гуріндер Чадха (Gurinder Chadha)
Актори: Парміндер К. Нагр (Parminder Nagra), Кіра Найтлі (Keira Knightley), Джонатан Різ Маєрс (Jonathan Rhys Meyers), Анупам Кхер (Anupam Kher), Арчі Панджабі (Archie Panjabi), Шезней Льюїс (Shaznay Lewis), Френк Харпер (Frank Harper), Джульєт Стівенсон (Juliet Stevenson), Шахін Кхан (Shaheen Khan), Аміт Чана (Ameet Chana), Пуджа Шах (Pooja Shah), Прія Калідаси (Preeya Kalidas), Трей Фарлі (Trey Farley), Імран Алі (Imran Ali), Харві Вірд (Har

Сюжет:
Джесс тільки 18, але вона твердо знає, що зробить її щасливою: футбольна кар'єра, така ж, як у знаменитого гравця «Манчестер Юнайтед» Девіда Бекхема. Поки вона ганяє м'яч у лондонському парку, доводячи сусідським хлопчакам, що дівчата грають у футбол не гірше, її батьки і численні родичі, як і належить традиційної індійської родини, підшукують для неї гідного чоловіка і будують плани про її майбутню кар'єру юриста.

Одного разу, під час чергової розминки, Джесс знайомиться з Джулз і та запрошує її на тренування в жіночу футбольну секцію. Із завмиранням серця вона слідує за своєю новою приятелькою, і мрія стає реальністю: Джесс приймають у справжню футбольну команду. На довершення до всього вона закохується у свого тренера Джо.

Розуміючи, що родина ніколи не примириться з її вибором, Джесс насолоджується своїм короткочасним щастям і готується відстоювати свої права до кінця ...


Тривалість: 01:52:04
Якість: 720p
Відео:
кодек:
розмір кадру: 1278х720
бітрейт: 7517 кб/с

Аудіо # 1:
мова: українська
переклад: двоголосий закадровий
кодек: 2.0 (з 5.1)
бітрейт: 192 кб/с
Примітка: звук не зовсім якісний, бажає бути кращим.

Аудіо # 2:
мова: англійська
переклад: оригінал
кодек: 5.1
бітрейт: 1509 кб/с

Субтитри:
мова: англійська
тип: програмні (м'які)
формат: *.srt
Info
General
Unique ID : 198639639719920579922971389942191916702 (0x95709A600924A1C9AEB6DCA6CCC4869E)
Format :
Format version : Version 4 / Version 2
File size : 7.40 GiB
Duration : 1 h 52 min
Overall bit rate : 9 447 kb/s
Encoded date : UTC 2018-10-02 06:42:00
Writing application : v6.1.0 ('Old Devil') built on Mar 4 2013 09:10:42
Writing library : libebml v1.3.0 + v1.4.0

Video
ID : 1
Format : AVC
Format/Info : Advanced Video Codec
Format profile : [email protected]
Format settings : CABAC / 9 Ref Frames
Format settings, CABAC : Yes
Format settings, ReFrames : 9 frames
Codec ID : V_MPEG4/ISO/AVC
Duration : 1 h 52 min
Bit rate : 7 558 kb/s
Width : 1 278 pixels
Height : 720 pixels
Display aspect ratio : 16:9
Frame rate mode : Constant
Frame rate : 24.000 FPS
Color space : YUV
Chroma subsampling : 4:2:0
Bit depth : 8 bits
Scan type : Progressive
Bits/(Pixel*Frame) : 0.342
Stream size : 5.92 GiB (80%)
Writing library : core 112 r1834 a51816a
Encoding settings : cabac=1 / ref=9 / deblock=1:-3:-3 / analyse=0x3:0x133 / me=umh / subme=10 / psy=1 / psy_rd=0.90:0.05 / mixed_ref=1 / me_range=32 / chroma_me=1 / trellis=2 / 8x8dct=1 / cqm=0 / deadzone=21,11 / fast_pskip=0 / chroma_qp_offset=-3 / threads=12 / sliced_threads=0 / nr=0 / decimate=0 / interlaced=0 / constrained_intra=0 / bframes=9 / b_pyramid=2 / b_adapt=2 / b_bias=0 / direct=1 / weightb=1 / open_gop=0 / weightp=2 / keyint=250 / keyint_min=24 / scenecut=40 / intra_refresh=0 / rc_lookahead=40 / rc=crf / mbtree=0 / crf=17.5 / qcomp=0.60 / qpmin=0 / qpmax=51 / qpstep=4 / vbv_maxrate=50000 / vbv_bufsize=62500 / crf_max=0.0 / ip_ratio=1.40 / pb_ratio=1.30 / aq=1:0.70 / nal_hrd=none
Language : English
Default : Yes
Forced : No
Color range : Limited
Color primaries : BT.709
Transfer characteristics : BT.709
Matrix coefficients : BT.709

Audio #1
ID : 2
Format : AC-3
Format/Info : Audio Coding 3
Codec ID : A_AC3
Duration : 1 h 52 min
Bit rate mode : Constant
Bit rate : 192 kb/s
Channel(s) : 2 channels
Channel positions : Front: L R
Sampling rate : 48.0 kHz
Frame rate : 31.250 FPS (1536 SPF)
Bit depth : 16 bits
Compression mode : Lossy
Stream size : 154 MiB (2%)
Title : UKR (1+1)
Language : Ukrainian
Service kind : Complete Main
Default : Yes
Forced : Yes

Audio #2
ID : 3
Format :
Format/Info : Digital Theater Systems
Codec ID : A_DTS
Duration : 1 h 52 min
Bit rate mode : Constant
Bit rate : 1 509 kb/s
Channel(s) : 6 channels
Channel positions : Front: L C R, Side: L R, LFE
Sampling rate : 48.0 kHz
Frame rate : 93.750 FPS (512 SPF)
Bit depth : 24 bits
Compression mode : Lossy
Stream size : 1.18 GiB (16%)
Language : English
Default : No
Forced : No

Text
ID : 4
Format : UTF-8
Codec ID : S_TEXT/UTF8
Codec ID/Info : UTF-8 Plain Text
Language : English
Default : No
Forced : No

Menu
00:00:00.000 : en:00:00:00.000
00:06:13.292 : en:00:06:13.292
00:11:52.167 : en:00:11:52.167
00:20:17.083 : en:00:20:17.083
00:27:11.333 : en:00:27:11.333
00:31:39.625 : en:00:31:39.625
00:37:24.625 : en:00:37:24.625
00:41:58.250 : en:00:41:58.250
00:45:22.417 : en:00:45:22.417
00:52:10.375 : en:00:52:10.375
01:02:45.667 : en:01:02:45.667
01:10:36.708 : en:01:10:36.708
01:22:32.458 : en:01:22:32.458
01:30:04.667 : en:01:30:04.667
01:35:46.750 : en:01:35:46.750
01:46:03.625 : en:01:46:03.625
Скріншоти










Подяки:
1. Панам Hulk1987 та urij546724 за запис звуку з ТБ та його синхронізацію.
2. Пану zgryvus за українізацію постера.
Особиста подяка пану denixx за надану матеріальну допомогу на підтримку цього і майбутніх релізів.
Джерело:


Срібний реліз (на рейтинг впливає 50% завантаженого)
 Трекер:    Зареєстрований   

Завантажити / скачати фільм українською



відео для новачків



 Зареєстрований:   2018-10-02 09:48
 Розмір:   7.4 GB 
 Оцінка фільму:   10/10 (Голосів: 1)
   
Інші релізи
   Грай, як Бекхем / Bend It Like Beckham (2002) urij546724  5 / 0   1.37 GB   2010-10-12 23:13 
Ваш часовий пояс: GMT + 2 Години

Нова тема   Відповісти