Темне місто [Режисерська версія] / Dark City [Director's cut] (1998) 720p Ukr/Eng | Sub Eng

Нові коментарі

Нова тема   Відповісти
Автор Повідомлення
staf777 
Попереджень: 1
Попереджень: 1 


З нами з: 16.11.16
Востаннє: 13.12.18
Повідомлень: 1909

2018-10-02 08:19  
Темне місто [Режисерська версія] / Dark City [Director's cut] (1998) 720p Ukr/Eng | Sub Eng

Альтернативний український постер:



Жанр: фантастика, трилер, детектив
Країна: США, Австралія

, премія Сатурн 1999 року у номінації "Кращий науково-фантастичний фільм"

Кінокомпанія: New Line Cinema, Mystery Clock Cinema
Режисер: Алекс Прояс / Alex Proyas
Актори: Руфус С'юелл / Rufus Sewell, Вільям Херт / William Hurt, Кіфер Сазерленд / Kiefer Sutherland, Дженніфер Коннеллі / Jennifer Connelly, Річард О`Брайєн / Richard O'Brien, Ієн Річардсон / Ian Richardson, Брюс Спенс / Bruce Spence, Колін Фрілз / Colin Friels, Джон Блузал / John Bluthal, Мітчел Бутел / Mitchell Butel та інші.

Сюжет:
Вбивцю що не пам'ятає свого імені і минулого, переслідує поліцейський інспектор Френк Бастед. Його шукає дружина Ема, за ним полюють чужаки, а він по обривках спогадів намагається розібратися в тому, що відбувається.

Автор "Ворону" використовував масу вражаючих візуальних спецефектів, щоб створити моторошнувату, похмуру атмосферу.

# Робочі назви картини – «Темна імперія» (Dark Empire) і «Темний світ» (Dark World).
# Багато декорацій цієї картини, включаючи дахи, будівлі і іншу натуру, використовувалися при зйомці фільму «Матриця» (The Matrix, 1999).
# Найменшого з прибульців – містера Сліпа – зіграли близнята, дівчинка Сатья Гумберт (Satya Gumbert) і її брат Ноа Гумберт (Noah Gumbert).
# Фільм знімався в Лос-Анджелесі (США, штат Каліфорнію) і Сіднеї (Австралія, штат Новий Південний Уельс).
# Алекс Пройас почав працювати над сценарієм у 1990 році.
Відмінності від театральної версії (обережно - спойлери!

• Деякі епізоди були зміщені, деякі додані, деякі видалені.
• У деяких епізодах була змінена музика.
• На початку фільму немає розповіді і вигляду міста. Камера з космосу опускається до лікаря Шребера, а потім до Джона, що прокидається у ванній.
• Змінено музику в обох піснях, які співає Емма.
• Доданий епізод, коли Джон зауважує свої спіралеподібні відбитки перед тим, як іде в кафе.
• Доданий епізод, в якому Бамстед отримує фото спіралеподібних відбитків пальців Джона, знятих з повії.
• У повії Мей тепер є маленька донька. Джон йде з квартири, коли помічає її.
• Подовжений епізод, в якому Емма приходить заявити про зникнення чоловіка.
• Подовжений перший епізод в лігві Чужих.
• У лазні, після розмови з доктором Шребером, містер Рука створює сходи для басейну.
• Перед епізодом першого налаштування додана розмова чоловіка з дружиною, які після налаштування стають багатими.
• Коли ми вдруге бачимо в офісі Бамстеда з акордеоном, він дивиться всередину кавової чашки і бачить, що всередині обертається спіраль. Потім він кидає погляд на фото спіралеподібних відбитків Джона.
• Трохи подовжений епізод, в якому містеру Рука вводять спогади Джона.
• Коли Емма і Бамстед знаходять тіло повії Мей, вони також знаходять її дочку, що ховаються під ліжком. У дочки вони бачать малюнок Чужих, що вбивають ножами її маму.
• Коли доктор Шребер відмовляється показати дорогу до океану, Джон катує його за допомогою здатності до налаштування.
• Доданий епізод з Бамстедом, що летить через космос.
• Коли Джон спускається в лігво Чужих, один з них оглядає його, бачить спіралеподібні відбитки пальців і повідомляє всім про те, що Джон еволюціонував.
• Подовжена битва розумів в кінці фільму.
• Після того, як у містера Бука встромлюють ніж, він обертається навколо вежі і з нього виходить блакитний туман.
рейтинг MPAA: R - особам до 17 років обов'язкова присутність батьків або дорослого опікуна
Вікова категорія: 16+

Тривалість: 01:51:43
Якість: 720p
Відео:
кодек:
розмір кадру: 1280 x 544
бітрейт: 5147 кб/с

Аудіо # 1:
мова: українська Студія "ТВ+" на замовлення
переклад: багатоголосий закадровий
Ролі озвучили: Олександр Шепель (Джон Мердок / Руфус С'юелл), Євген Пашин і Ніна Касторф
кодек: 5.1
бітрейт: 448 кб/с

Аудіо # 2:
мова: англійська
переклад: оригінал
кодек: 5.1
бітрейт: 448 кб/с

Субтитри # 1:
мова: українська (форсовані - до місць без перекладу)
тип: програмні (м'які)
формат: *.srt

Субтитри # 2:
мова: англійська
тип: програмні (м'які)
формат: *.srt
Info

General
Unique ID : 285290229914237541574312253392483921191 (0xD6A0E650556D1C130F12D4E8C2422D27)
Complete name : N:\Майбутні релізи\Dark City [Directors Cut] (1998) 720p [UKR_ENG] [Hurtom].
Format :
Format version : Version 4 / Version 2
File size : 4.72 GiB
Duration : 1 h 51 min
Overall bit rate mode : Variable
Overall bit rate : 6 045 kb/s
Movie name : Dark City [Directors Cut] (1998) 720p [UKR_ENG] [Hurtom]
Encoded date : UTC 2018-10-02 11:50:41
Writing application : v24.0.0 ('Beyond The Pale') 64-bit
Writing library : libebml v1.3.6 + v1.4.9
Cover : Yes
Attachments : cover.jpg

Video
ID : 1
Format : AVC
Format/Info : Advanced Video Codec
Format profile : [email protected]
Format settings : CABAC / 6 Ref Frames
Format settings, CABAC : Yes
Format settings, ReFrames : 6 frames
Codec ID : V_MPEG4/ISO/AVC
Duration : 1 h 51 min
Bit rate mode : Variable
Bit rate : 5 147 kb/s
Width : 1 280 pixels
Height : 544 pixels
Display aspect ratio : 2.35:1
Frame rate mode : Constant
Frame rate : 23.976 (24000/1001) FPS
Color space : YUV
Chroma subsampling : 4:2:0
Bit depth : 8 bits
Scan type : Progressive
Bits/(Pixel*Frame) : 0.308
Stream size : 4.02 GiB (85%)
Title : Encoded by GYN
Default : Yes
Forced : No

Audio #1
ID : 2
Format : AC-3
Format/Info : Audio Coding 3
Codec ID : A_AC3
Duration : 1 h 51 min
Bit rate mode : Constant
Bit rate : 448 kb/s
Channel(s) : 6 channels
Channel positions : Front: L C R, Side: L R, LFE
Sampling rate : 48.0 kHz
Frame rate : 31.250 FPS (1536 SPF)
Bit depth : 16 bits
Compression mode : Lossy
Stream size : 358 MiB (7%)
Title : TV+
Language : Ukrainian
Service kind : Complete Main
Default : Yes
Forced : Yes

Audio #2
ID : 3
Format : AC-3
Format/Info : Audio Coding 3
Codec ID : A_AC3
Duration : 1 h 51 min
Bit rate mode : Constant
Bit rate : 448 kb/s
Channel(s) : 6 channels
Channel positions : Front: L C R, Side: L R, LFE
Sampling rate : 48.0 kHz
Frame rate : 31.250 FPS (1536 SPF)
Bit depth : 16 bits
Compression mode : Lossy
Stream size : 358 MiB (7%)
Language : English
Service kind : Complete Main
Default : No
Forced : No

Text #1
ID : 4
Format : UTF-8
Codec ID : S_TEXT/UTF8
Codec ID/Info : UTF-8 Plain Text
Duration : 1 h 15 min
Bit rate : 11 b/s
Count of elements : 124
Stream size : 6.55 KiB (0%)
Title : Forced
Language : Ukrainian
Default : Yes
Forced : Yes

Text #2
ID : 5
Format : UTF-8
Codec ID : S_TEXT/UTF8
Codec ID/Info : UTF-8 Plain Text
Duration : 1 h 46 min
Bit rate : 43 b/s
Count of elements : 1104
Stream size : 34.1 KiB (0%)
Language : English
Default : No
Forced : No






Джерела та подяки: українська доріжка - imonko, MAKAPOHHIK; українські субтитри - imonko, українські постери - somnambula, Воїн. Подяка igor911 за допомогу (всі - Гуртом).
Джерело: &


Срібний реліз (на рейтинг впливає 50% завантаженого)
 Трекер:    Зареєстрований   

Завантажити / скачати фільм українською



відео для новачків



 Зареєстрований:   2018-10-02 16:29
 Розмір:   4.72 GB 
 Оцінка фільму:   8.6/10 (Голосів: 7)
   
lastbreath 
Частий відвідувач


З нами з: 02.12.15
Востаннє: 09.12.18
Повідомлень: 33

2018-10-07 01:13  
Шикарне кіно.
Ваш часовий пояс: GMT + 2 Години

Нова тема   Відповісти