Останній шанс побачити. Повернення носорога / BBC. Last Chance to See. Return of the Rhino (2010) 720p Ukr/Eng | Sub Eng

Нові коментарі

Нова тема   Відповісти
Автор Повідомлення
DareDevil96 
Відео Гуртом - запис з ТБ
Відео Гуртом - запис з ТБ


З нами з: 23.07.10
Востаннє: 14.02.19
Повідомлень: 610

2018-10-01 21:00  
Останній шанс побачити. Повернення носорога / BBC. Last Chance to See. Return of the Rhino (2010) 720p Ukr/Eng | Sub Eng






Жанр: документальний, тварини, природа, подорожі
Країна: Велика Британія

Телеканал / кіностудія: BBC, Da Vinci Learning


Сюжет:
Рік тому зоолог Марк Каргордін разом із Стівеном Фраєм вирушили до Африки на пошуки Північного Білого Носорога, який перебуває на межі зникнення. Але як виявляється, все ж залишилась остання надія для найрідкісніших істот на нашій планеті.

Тривалість: 59:12

Якість: 720p
Відео:
кодек:
розмір кадру: 1280х720 (16:9)
частота кадрів: 25.000 кадр/сек
бітрейт: 4000 кб/с

Аудіо:
мова: українська
переклад: дубляж (оповідач) + багатоголосий закадровий
кодек: 2.0
бітрейт: 192 кб/с (6 кГц!)

Аудіо # 2:
мова: англійська
переклад: оригінал
кодек: 2.0
бітрейт: 384 кб/с

Субтитри:
мова: англійська
тип: програмні (м'які)
формат: *.srt
Звіт Info:
Complete name : F:\Завантаження\BBC. Return of the Rhino. A Last Chance to See (2010) [Ukr.DaVinciLearning] 720p [Hurtom] by DareDevil96.
Format :
Format version : Version 4 / Version 2
File size : 1.89 GiB
Duration : 59 min 12 s
Overall bit rate : 4 579 kb/s
Encoded date : UTC 2018-10-01 18:39:13
Writing application : v26.0.0 ('In The Game') 64-bit
Writing library : libebml v1.3.6 + v1.4.9

Video
ID : 1
Format : AVC
Format/Info : Advanced Video Codec
Format profile : [email protected]
Format settings : CABAC / 4 Ref Frames
Format settings, CABAC : Yes
Format settings, ReFrames : 4 frames
Codec ID : V_MPEG4/ISO/AVC
Duration : 59 min 12 s
Bit rate : 4 000 kb/s
Width : 1 280 pixels
Height : 720 pixels
Display aspect ratio : 16:9
Frame rate mode : Constant
Frame rate : 25.000 FPS
Color space : YUV
Chroma subsampling : 4:2:0
Bit depth : 8 bits
Scan type : Progressive
Bits/(Pixel*Frame) : 0.174
Stream size : 1.65 GiB (87%)
Writing library : core 105 r1732 2b04482
Encoding settings : cabac=1 / ref=4 / deblock=1:0:0 / analyse=0x3:0x113 / me=umh / subme=9 / psy=1 / psy_rd=1.00:0.00 / mixed_ref=1 / me_range=24 / chroma_me=1 / trellis=1 / 8x8dct=1 / cqm=0 / deadzone=21,11 / fast_pskip=0 / chroma_qp_offset=-2 / threads=3 / sliced_threads=0 / nr=0 / decimate=1 / interlaced=0 / constrained_intra=0 / bframes=3 / b_pyramid=0 / b_adapt=1 / b_bias=0 / direct=1 / weightb=1 / open_gop=0 / weightp=2 / keyint=125 / keyint_min=25 / scenecut=40 / intra_refresh=0 / rc_lookahead=40 / rc=2pass / mbtree=1 / bitrate=4000 / ratetol=1.0 / qcomp=0.60 / qpmin=10 / qpmax=51 / qpstep=4 / cplxblur=20.0 / qblur=0.5 / ip_ratio=1.40 / aq=1:1.00
Language : English
Default : Yes
Forced : No

Audio #1
ID : 2
Format : AC-3
Format/Info : Audio Coding 3
Commercial name : Dolby Digital
Codec ID : A_AC3
Duration : 59 min 11 s
Bit rate mode : Constant
Bit rate : 192 kb/s
Channel(s) : 2 channels
Channel layout : L R
Sampling rate : 48.0 kHz
Frame rate : 31.250 FPS (1536 SPF)
Bit depth : 16 bits
Compression mode : Lossy
Stream size : 81.3 MiB (4%)
Title : ZAKADR-[Ukr.DaVinciLearning]
Language : Ukrainian
Service kind : Complete Main
Default : No
Forced : No

Audio #2
ID : 3
Format : AC-3
Format/Info : Audio Coding 3
Commercial name : Dolby Digital
Codec ID : A_AC3
Duration : 59 min 11 s
Bit rate mode : Constant
Bit rate : 384 kb/s
Channel(s) : 6 channels
Channel layout : L R C LFE Ls Rs
Sampling rate : 48.0 kHz
Frame rate : 31.250 FPS (1536 SPF)
Bit depth : 16 bits
Compression mode : Lossy
Delay relative to video : 18 ms
Stream size : 163 MiB (8%)
Language : English
Service kind : Complete Main
Default : Yes
Forced : No

Text
ID : 4
Format : UTF-8
Codec ID : S_TEXT/UTF8
Codec ID/Info : UTF-8 Plain Text
Duration : 58 min 35 s
Bit rate : 78 b/s
Count of elements : 633



Джерело озвучення:
Da Vinci Learning


Скріншоти

Джерело: DareDevil96 спеціально для
Ріп: MVGroup.org by JungleBoy
Особиста оцінка: 8 - справді цікаво
Подяка пану scapuletti за допомогу в пошуку ріпа.


P.S. При нагоді, залишайтесь на роздачі релізів, дякую. Записів ще дуже багато, а місця на усе фізично не вистачає...




 Трекер:    Зареєстрований   

Завантажити / скачати фільм українською



відео для новачків



 Зареєстрований:   2018-10-01 21:00
 Розмір:   1.89 GB 
 Оцінка фільму:   10/10 (Голосів: 3)
 Останній шанс побачити. Повернення носорога / BBC. Last Chance to See. Return of the Rhino (2010) HDTVRip 720p Ukr/Eng | Sub Eng
   
bot 
робот


З нами з: 30.09.07
Востаннє: 26.05.05
Повідомлень: 20700

2018-10-03 13:07  
Тему перенесено з BBC до форуму Документальні фільми в HD


DareDevil96

Ваш часовий пояс: GMT + 2 Години

Нова тема   Відповісти