Тринадцятий поверх / The Thirteenth Floor (1999) Remux 1080p Ukr/Eng | Sub Eng

Нові коментарі

Нова тема   Відповісти
Автор Повідомлення
IronBee 
Поважний учасник


З нами з: 08.02.10
Востаннє: 21.10.18
Повідомлень: 208

2018-10-01 21:38  
Тринадцятий поверх / The Thirteenth Floor (1999) Remux 1080p Ukr/Eng | Sub Eng

Тринадцятий поверх / The Thirteenth Floor (1999) Remux 1080p Ukr/Eng | Sub Eng


Жанр: наукова фантастика, трилер, детектив
Країна: США



Кінокомпанія: Columbia Pictures, Centropolis Film Productions
Режисер: Джозеф Руснак / Josef Rusnak
Актори: Крейґ Бієрко / Craig Bierko, Ґретхен Мол / Gretchen Mol, Армін Мюллер-Шталь / Armin Mueller-Stahl, Вінсент Д’Онофріо / Vincent D’Onofrio, Денніс Гейсберт / Dennis Haysbert, Стівен Шуб / Steven Schub, Ширі Епплбі / Shiri Appleby, Боб Кленденін / Bob Clendenin та інші

Сюжет:
На тринадцятому поверсі комп’ютерної корпорації була розроблена досконала модель віртуальної реальності, створення якої привело за собою ланцюг таємничих вбивств. Розгадати загадку можна лише занурившись в інший вимір, де може бути відповідь на багато питань, а можливо - страшна нереальність...

Цікаві факти:
- "Тринадцятий поверх" вийшов на екрани одночасно зі знаменитою "Матрицею" братів Вачовскі, але на її тлі виявився практично непоміченим.
- У 2000-му році картина номінувалася на премію «Сатурн» (Saturn Award) у категорії «кращий науково-фантастичний фільм».
- Стрічка знімалася в Лос-Анджелесі.
- Фільм є екранізацією роману американського письменника Деніела Френсіса Ґелові (Daniel Francis Galouye, 1920-1976) "Сімулакрон-3" (Simulacron-3), який був перевиданий у Німеччині як "13-ий поверх" (The 13th Floor).
- Роман "Сімулакрон-3" був вперше опублікований у США в 1964 році і є одним з найперших літературних описів віртуальної реальності.


Тривалість: 01:40:30
Якість: Remux
Відео:
кодек:
розмір кадру: 1920 х 1080
бітрейт: 25.8 Mб/с

Аудіо # 1:
мова: українська
переклад: багатоголосий закадровий | K1
кодек: 2.0
бітрейт: 192 кб/с

Аудіо # 2:
мова: англійська
переклад: оригінал
кодек: TrueHD 5.1
бітрейт: 3267 кб/с

Субтитри:
мова: англійська
тип: пререндерні
формат: *.PGS
Info
General
Unique ID : 198165088999529161342848949198562226200 (0x95153537DCA7C71E001AD14DFFDF7018)
Complete name : E:\Films\Тринадцятий поверх The Thirteenth Floor (1999) Remux 1080p UkrEng Sub Eng[Hurtom].
Format :
Format version : Version 4
File size : 19.4 GiB
Duration : 1 h 40 min
Overall bit rate mode : Variable
Overall bit rate : 27.7 Mb/s
Encoded date : UTC 2018-09-18 18:26:35
Writing application : v26.0.0 ('In The Game') 64-bit
Writing library : libebml v1.3.6 + v1.4.9

Video
ID : 1
Format : AVC
Format/Info : Advanced Video Codec
Format profile : [email protected]
Format settings : CABAC / 2 Ref Frames
Format settings, CABAC : Yes
Format settings, ReFrames : 2 frames
Codec ID : V_MPEG4/ISO/AVC
Duration : 1 h 40 min
Bit rate mode : Variable
Bit rate : 25.8 Mb/s
Width : 1 920 pixels
Height : 1 080 pixels
Display aspect ratio : 16:9
Frame rate mode : Constant
Frame rate : 23.976 (24000/1001) FPS
Color space : YUV
Chroma subsampling : 4:2:0
Bit depth : 8 bits
Scan type : Progressive
Bits/(Pixel*Frame) : 0.518
Stream size : 18.1 GiB (93%)
Default : Yes
Forced : No

Audio #1
ID : 2
Format : AC-3
Format/Info : Audio Coding 3
Commercial name : Dolby Digital
Codec ID : A_AC3
Duration : 1 h 37 min
Bit rate mode : Constant
Bit rate : 192 kb/s
Channel(s) : 2 channels
Channel layout : L R
Sampling rate : 48.0 kHz
Frame rate : 31.250 FPS (1536 SPF)
Bit depth : 16 bits
Compression mode : Lossy
Stream size : 133 MiB (1%)
Title : 2.0 192 кб/с багатоголосий закадровий K1
Language : Ukrainian
Service kind : Complete Main
Default : Yes
Forced : No

Audio #2
ID : 3
Format : MLP FBA
Format/Info : Meridian Lossless Packing FBA
Commercial name : Dolby TrueHD
Codec ID : A_TRUEHD
Duration : 1 h 40 min
Bit rate mode : Variable
Bit rate : 1 641 kb/s
Maximum bit rate : 3 267 kb/s
Channel(s) : 6 channels
Channel layout : L R C LFE Ls Rs
Sampling rate : 48.0 kHz
Frame rate : 1 200.000 FPS (40 SPF)
Compression mode : Lossless
Stream size : 1.15 GiB (6%)
Language : English
Default : No
Forced : No

Text
ID : 4
Format : PGS
Muxing mode : zlib
Codec ID : S_HDMV/PGS
Codec ID/Info : Picture based subtitle format used on BDs/HD-DVDs
Duration : 1 h 35 min
Bit rate : 23.6 kb/s
Count of elements : 1920
Stream size : 16.1 MiB (0%)
Language : English
Default : Yes
Forced : No
Скріншоти





українська доріжка - DеLight - зведення, xslim - запис з ТБ;

Джерело: &
Особиста оцінка: 10 - без зайвих вагань рекомендую всім!


Золотий реліз (завантажене не впливає на рейтинг)
 Трекер:    Зареєстрований   

Завантажити / скачати фільм українською



відео для новачків



 Зареєстрований:   2018-10-01 21:38
 Розмір:   19.43 GB 
 Оцінка фільму:   9.4/10 (Голосів: 9)
   
AI_Avenger 
Новенький


З нами з: 31.07.13
Востаннє: 21.10.18
Повідомлень: 14

2018-10-01 21:46  
Ну не сказав би що фільм вийшов не поміченим. Особисто мені сподобався свого часу не менше ніж "Матриця".
IronBee 
Поважний учасник


З нами з: 08.02.10
Востаннє: 21.10.18
Повідомлень: 208

2018-10-01 21:59  
фільм дуже цікавий)

Додано через 3 хвилини 6 секунд:

мені нагадало Ріка і Морті і епізод з всесвітом в акумуляторі ))

Ваш часовий пояс: GMT + 2 Години

Нова тема   Відповісти