Привид опери / The Phantom of the Opera (2004) 1080p 3xUkr/Eng | Sub Ukr/Eng

Нові коментарі

Нова тема   Відповісти
Автор Повідомлення
Anonymous 







2018-10-01 19:02  
Привид опери / The Phantom of the Opera (2004) 1080p 3xUkr/Eng | Sub Ukr/Eng

Привид опери / The Phantom of the Opera (2004) 1080p 3xUkr/Eng | Sub Ukr/Eng


Жанр: драма, мюзикл, романтичний, трилер
Країна: Велика Британія, США



Кінокомпанія: Warner Bros., Odyssey Entertainment, Really Useful Films
Режисер: Джоель Шумахер
Актори: Джерард Батлер , Еммі Россум, Патрік Вілсон, Міранда Річардсон, Мінні Драйвер, Кірен Гайдз /, Саймон Келлов, Дженніфер Еллісон, Мюррей Мелвін та інші.

Сюжет:
Таємничий голос волає до молодої оперної співачки Крістін з похмурих надр величної Паризької опери. Лише одна людина в трупі знає, що невидимий покровитель і наставник Крістін, навідний жах на артистів, - спотворений геній музики, закоханий в юну красуню.
Примара в масці зробить все, щоб вона стала примадонною сцени, проте у нього є владний суперник - багатий віконт Рауль де Шаньі. Ставши полонянкою любовного трикутника, Крістіна повинна зробити вибір. Але пристрасті, що закрутили голову, люті ревнощі і божевільна любов вже ухвалили полюбленим свій немилосердний вирок...


Тривалість: 02:21:06
Якість: 1080p
Відео:
кодек:
розмір кадру: 1908х800
бітрейт: 11 Мб/с

Аудіо # 1:
мова: українська
переклад: багатоголосий закадровий
кодек: 2.0
бітрейт: 192 кб/с

Аудіо # 2:
мова: українська
переклад: двоголосий закадровий
кодек: 2.0
бітрейт: 192 кб/с

Аудіо # 3:
мова: українська
переклад: багатоголосий закадровий
кодек: 2.0
бітрейт: 192 кб/с

Аудіо # 4:
мова: англійська
переклад: оригінал
кодек: 5.1
бітрейт: 1 510 кб/с

Субтитри:
мова: українська
тип: програмні (м'які)
формат: *.srt

Субтитри:
мова: англійська
тип: програмні (м'які)
формат: *.srt
Info
General
Unique ID : 211916476058438333406043120828566549221 (0x9F6DA0F227C20B5E9FF9E35D59D932E5)
Format :
Format version : Version 4 / Version 2
File size : 12.9 GiB
Duration : 2 h 21 min
Overall bit rate : 13.1 Mb/s
Encoded date : UTC 2018-10-01 15:48:38
Writing application : v6.1.0 ('Old Devil') built on Mar 4 2013 09:10:42
Writing library : libebml v1.3.0 + v1.4.0

Video
ID : 1
Format : AVC
Format/Info : Advanced Video Codec
Format profile : [email protected]
Format settings : CABAC / 5 Ref Frames
Format settings, CABAC : Yes
Format settings, ReFrames : 5 frames
Format settings, GOP : N=1
Codec ID : V_MPEG4/ISO/AVC
Duration : 2 h 21 min
Bit rate : 11.0 Mb/s
Width : 1 908 pixels
Height : 800 pixels
Display aspect ratio : 2.40:1
Frame rate mode : Constant
Frame rate : 23.976 FPS
Color space : YUV
Chroma subsampling : 4:2:0
Bit depth : 8 bits
Scan type : Progressive
Bits/(Pixel*Frame) : 0.300
Stream size : 10.6 GiB (82%)
Writing library : core 58 svn-736M
Encoding settings : cabac=1 / ref=5 / deblock=1:-3:-3 / analyse=0x3:0x113 / me=umh / subme=7 / me-prepass=0 / brdo=1 / mixed_ref=1 / me_range=26 / chroma_me=1 / trellis=1 / 8x8dct=1 / cqm=2 / deadzone=21,11 / chroma_qp_offset=0 / threads=6 / nr=0 / decimate=1 / mbaff=0 / bframes=16 / b_pyramid=1 / b_adapt=1 / b_bias=0 / direct=3 / wpredb=1 / bime=1 / keyint=250 / keyint_min=25 / scenecut=40(pre) / rc=2pass / bitrate=10961 / ratetol=1.0 / rceq='blurCplx^(1-qComp)' / qcomp=0.60 / qpmin=10 / qpmax=51 / qpstep=4 / cplxblur=20.0 / qblur=0.5 / ip_ratio=1.40 / pb_ratio=1.30 / aq=1:0.6:16.0
Language : English
Default : Yes
Forced : No

Audio #1
ID : 2
Format : AC-3
Format/Info : Audio Coding 3
Codec ID : A_AC3
Duration : 2 h 21 min
Bit rate mode : Constant
Bit rate : 192 kb/s
Channel(s) : 2 channels
Channel positions : Front: L R
Sampling rate : 48.0 kHz
Frame rate : 31.250 FPS (1536 SPF)
Bit depth : 16 bits
Compression mode : Lossy
Stream size : 194 MiB (1%)
Title : UKR | Воля Cine+ |
Language : Ukrainian
Service kind : Complete Main
Default : Yes
Forced : Yes

Audio #2
ID : 3
Format : AC-3
Format/Info : Audio Coding 3
Codec ID : A_AC3
Duration : 2 h 21 min
Bit rate mode : Constant
Bit rate : 192 kb/s
Channel(s) : 2 channels
Channel positions : Front: L R
Sampling rate : 48.0 kHz
Frame rate : 31.250 FPS (1536 SPF)
Bit depth : 16 bits
Compression mode : Lossy
Stream size : 194 MiB (1%)
Title : UKR | TET & 1+1 |
Language : Ukrainian
Service kind : Complete Main
Default : No
Forced : No

Audio #3
ID : 4
Format : AC-3
Format/Info : Audio Coding 3
Codec ID : A_AC3
Duration : 2 h 21 min
Bit rate mode : Constant
Bit rate : 192 kb/s
Channel(s) : 2 channels
Channel positions : Front: L R
Sampling rate : 48.0 kHz
Frame rate : 31.250 FPS (1536 SPF)
Bit depth : 16 bits
Compression mode : Lossy
Stream size : 194 MiB (1%)
Title : UKR | K1 |
Language : Ukrainian
Service kind : Complete Main
Default : No
Forced : No

Audio #4
ID : 5
Format :
Format/Info : Digital Theater Systems
Codec ID : A_DTS
Duration : 2 h 21 min
Bit rate mode : Constant
Bit rate : 1 510 kb/s
Channel(s) : 6 channels
Channel positions : Front: L C R, Side: L R, LFE
Sampling rate : 48.0 kHz
Frame rate : 93.750 FPS (512 SPF)
Bit depth : 24 bits
Compression mode : Lossy
Stream size : 1.49 GiB (12%)
Language : English
Default : No
Forced : No

Text #1
ID : 6
Format : UTF-8
Codec ID : S_TEXT/UTF8
Codec ID/Info : UTF-8 Plain Text
Title : UKR
Language : Ukrainian
Default : Yes
Forced : No

Text #2
ID : 7
Format : UTF-8
Codec ID : S_TEXT/UTF8
Codec ID/Info : UTF-8 Plain Text
Title : Full
Language : English
Default : No
Forced : No

Menu
00:00:00.000 : en:00:00:00.000
00:04:46.244 : en:00:04:46.244
00:07:32.742 : en:00:07:32.742
00:13:56.585 : en:00:13:56.585
00:17:29.673 : en:00:17:29.673
00:22:21.423 : en:00:22:21.423
00:26:00.599 : en:00:26:00.599
00:28:35.380 : en:00:28:35.380
00:30:59.273 : en:00:30:59.273
00:34:33.320 : en:00:34:33.320
00:41:09.007 : en:00:41:09.007
00:43:46.914 : en:00:43:46.914
00:47:35.476 : en:00:47:35.476
00:55:02.673 : en:00:55:02.673
00:58:29.922 : en:00:58:29.922
01:03:05.447 : en:01:03:05.447
01:05:50.195 : en:01:05:50.195
01:08:45.578 : en:01:08:45.578
01:14:22.373 : en:01:14:22.373
01:16:43.015 : en:01:16:43.015
01:26:03.658 : en:01:26:03.658
01:30:18.037 : en:01:30:18.037
01:33:49.039 : en:01:33:49.039
01:37:56.703 : en:01:37:56.703
01:41:42.136 : en:01:41:42.136
01:45:46.840 : en:01:45:46.840
01:48:57.697 : en:01:48:57.697
01:54:29.570 : en:01:54:29.570
01:57:04.182 : en:01:57:04.182
02:01:53.596 : en:02:01:53.596
02:07:38.609 : en:02:07:38.609
02:11:45.146 : en:02:11:45.146
Скріншоти








За звук подяка MAKAPOHHIK, xslim, karvai0, sando7, -_-B_E_N_D_E_R-_-
Подяка за постер п. -_-B_E_N_D_E_R-_-
За субтитри подяка п. SainTManiac
Особиста подяка пану denixx за надану матеріальну допомогу на підтримку цього і майбутніх релізів.
Джерело:


Срібний реліз (на рейтинг впливає 50% завантаженого)
 Трекер:    Зареєстрований   

Завантажити / скачати фільм українською



відео для новачків



 Зареєстрований:   2018-10-01 19:02
 Розмір:   12.86 GB 
 Оцінка фільму:   10/10 (Голосів: 3)
   
Anоnymous 
Попереджень: 1
Попереджень: 1 


З нами з: 25.08.18
Востаннє: 19.10.18
Повідомлень: 208

2018-10-01 19:27  
Аааа ще....-_-B_E_N_D_E_R-_- постери робив.....

SainTManiac - задається субтитри

Висловлюю подяку п. MAKAPOHHIK за наданий сирий звук до Аудіо #2 i п. xslim за наданий сирий звук до Аудіо #3 п. sando7 за наданий сирий звук до Аудіо #1.
Синхронізували - Аудіо #2, 3 - п. karvai0 , Аудіо #1 -_-B_E_N_D_E_R-_-

hetzendorf 
Відео Гуртом - підтримка та поширення
Відео Гуртом - підтримка та поширення


З нами з: 23.07.15
Востаннє: 19.10.18
Повідомлень: 1303

2018-10-01 21:26  
Порівняно з фільмом 1989 року це якась нудна затягнута лажа.
Ваш часовий пояс: GMT + 2 Години

Нова тема   Відповісти